×

¿Problemas para descargar con Mozilla, EDGE? Deshabilita la opción "Abrir vinculos en una pestaña nueva" tal como lo muestra ésta imagen.

Empire of the Sun (1987) REMUX 1080p Latino – CMHDD

133 vistas

Información de Empire of the Sun (1987) REMUX 1080p Latino – CMHDD

Datos de la película

  • Calidad: Full 1080p
  • Audio: Español Latino AC3 2.0 BLURAY - Ingles DTS 5.1 BLURAY
  • Subtitulos: Español Latino PGS
  • Resolución: 1920x1080p
  • Formato: MKV
  • Codec: H.264
  • Encoder: Dracarys
  • Mediainfo: Clic para Mostrar Datos Ver
  • Format                      : Matroska
    Format version              : Version 4
    File size                   : 30.4 GiB
    Duration                    : 2 h 32 min
    Overall bit rate mode       : Variable
    Overall bit rate            : 28.4 Mb/s
    Movie name                  : Empire of the Sun (1987) REMUX 1080p Latino - CMHDD
    Encoded date                : UTC 2023-07-05 01:04:00
    Writing application         : mkvmerge v47.0.0 ('Black Flag') 64-bit
    Writing library             : libebml v1.3.10 + libmatroska v1.5.2
    Cover                       : Yes
    Attachments                 : cover.jpg

    Video
    ID                          : 1
    ID in the original source m : 4113 (0x1011)
    Format                      : AVC
    Format/Info                 : Advanced Video Codec
    Format profile              : High@L4.1
    Format settings             : CABAC / 2 Ref Frames
    Format settings, CABAC      : Yes
    Format settings, Reference  : 2 frames
    Format settings, GOP        : M=1, N=10
    Codec ID                    : V_MPEG4/ISO/AVC
    Duration                    : 2 h 32 min
    Bit rate mode               : Variable
    Bit rate                    : 24.0 Mb/s
    Width                       : 1 920 pixels
    Height                      : 1 080 pixels
    Display aspect ratio        : 16:9
    Frame rate mode             : Constant
    Frame rate                  : 23.976 (24000/1001) FPS
    Color space                 : YUV
    Chroma subsampling          : 4:2:0
    Bit depth                   : 8 bits
    Scan type                   : Progressive
    Bits/(Pixel*Frame)          : 0.483
    Stream size                 : 25.6 GiB (84%)
    Default                     : Yes
    Forced                      : No
    Original source medium      : Blu-ray

    Audio #1
    ID                          : 2
    ID in the original source m : 4352 (0x1100)
    Format                      : DTS XLL
    Format/Info                 : Digital Theater Systems
    Commercial name             : DTS-HD Master Audio
    Codec ID                    : A_DTS
    Duration                    : 2 h 32 min
    Bit rate mode               : Variable
    Bit rate                    : 4 248 kb/s
    Channel(s)                  : 6 channels
    Channel layout              : C L R Ls Rs LFE
    Sampling rate               : 48.0 kHz
    Frame rate                  : 93.750 FPS (512 SPF)
    Bit depth                   : 24 bits
    Compression mode            : Lossless
    Stream size                 : 4.53 GiB (15%)
    Language                    : English
    Default                     : No
    Forced                      : No
    Original source medium      : Blu-ray

    Audio #2
    ID                          : 3
    ID in the original source m : 4357 (0x1105)
    Format                      : AC-3
    Format/Info                 : Audio Coding 3
    Commercial name             : Dolby Digital
    Format settings             : Dolby Surround
    Codec ID                    : A_AC3
    Duration                    : 2 h 32 min
    Bit rate mode               : Constant
    Bit rate                    : 192 kb/s
    Channel(s)                  : 2 channels
    Channel layout              : L R
    Sampling rate               : 48.0 kHz
    Frame rate                  : 31.250 FPS (1536 SPF)
    Compression mode            : Lossy
    Stream size                 : 210 MiB (1%)
    Language                    : Spanish
    Service kind                : Complete Main
    Default                     : Yes
    Forced                      : No
    Original source medium      : Blu-ray

    Text
    ID                          : 4
    ID in the original source m : 4615 (0x1207)
    Format                      : PGS
    Muxing mode                 : zlib
    Codec ID                    : S_HDMV/PGS
    Codec ID/Info               : Picture based subtitle format used on BDs/HD-DVDs
    Duration                    : 2 h 32 min
    Bit rate                    : 13.2 kb/s
    Frame rate                  : 0.164 FPS
    Count of elements           : 1502
    Stream size                 : 14.4 MiB (0%)
    Language                    : Spanish
    Default                     : No
    Forced                      : No
    Original source medium      : Blu-ray

    Menu
    00:00:00.000                : en:Capítulo 01
    00:01:14.574                : en:Capítulo 02
    00:04:19.717                : en:Capítulo 03
    00:07:44.380                : en:Capítulo 04
    00:09:22.520                : en:Capítulo 05
    00:13:19.215                : en:Capítulo 06
    00:15:32.222                : en:Capítulo 07
    00:20:46.286                : en:Capítulo 08
    00:23:34.996                : en:Capítulo 09
    00:28:02.764                : en:Capítulo 10
    00:32:15.141                : en:Capítulo 11
    00:36:41.240                : en:Capítulo 12
    00:41:46.253                : en:Capítulo 13
    00:43:50.044                : en:Capítulo 14
    00:49:00.854                : en:Capítulo 15
    00:52:23.932                : en:Capítulo 16
    00:54:19.256                : en:Capítulo 17
    01:01:03.910                : en:Capítulo 18
    01:05:38.392                : en:Capítulo 19
    01:08:21.097                : en:Capítulo 20
    01:09:55.858                : en:Capítulo 21
    01:13:44.837                : en:Capítulo 22
    01:16:20.701                : en:Capítulo 23
    01:20:20.315                : en:Capítulo 24
    01:24:16.509                : en:Capítulo 25
    01:26:56.586                : en:Capítulo 26
    01:30:19.455                : en:Capítulo 27
    01:37:04.902                : en:Capítulo 28
    01:39:23.958                : en:Capítulo 29
    01:42:58.839                : en:Capítulo 30
    01:47:11.007                : en:Capítulo 31
    01:48:50.440                : en:Capítulo 32
    01:52:21.234                : en:Capítulo 33
    01:57:23.411                : en:Capítulo 34
    01:59:08.641                : en:Capítulo 35
    02:01:27.571                : en:Capítulo 36
    02:03:14.428                : en:Capítulo 37
    02:05:00.451                : en:Capítulo 38
    02:07:16.003                : en:Capítulo 39
    02:09:11.910                : en:Capítulo 40
    02:12:12.007                : en:Capítulo 41
    02:16:22.299                : en:Capítulo 42
    02:20:10.276                : en:Capítulo 43
    02:22:10.772                : en:Capítulo 44
    02:26:17.810                : en:Capítulo 45

  • Peso: 30.4 GiB

Sinopsis

Cuando, en diciembre de 1941, el ejército japonés ocupa Shanghai, la privilegiada vida de James Graham, un niño inglés de clase alta, toca a su fin. Es separado de sus padres y confinado en un campo de concentración próximo a un aeropuerto militar chino. En un ambiente dominado por la tristeza y la miseria se verá obligado a madurar prematuramente, y eso condicionará su visión del mundo.

Ficha técnica

Video trailer de la película

Enlaces de descarga

Rip de Bluray

Descargar Empire of the Sun (1987) REMUX 1080p Latino – CMHDD


Aportes de DPeliculasHDmega la pass es:dpeliculashdmega.org Aportes de CinemaniaHD la pass es:cinemaniahdd.com Aportes recientes:cinemaniahdd.net
Guardado en : Bélica , Drama , Historia

Películas relacionadas

descargar Empire of the Sun (1987) REMUX 1080p Latino – CMHDD Full 1080p 1080p gratis, Empire of the Sun (1987) REMUX 1080p Latino – CMHDD Full 1080p mega 1 link, Empire of the Sun (1987) REMUX 1080p Latino – CMHDD Full 1080p pelicula completa, descargar Empire of the Sun (1987) REMUX 1080p Latino – CMHDD Full 1080p gratis en mega.

Empire of the Sun (1987) REMUX 1080p Latino – CMHDD pelicula full hd, Empire of the Sun (1987) REMUX 1080p Latino – CMHDD mega latino, Empire of the Sun (1987) REMUX 1080p Latino – CMHDD 4k latino, Empire of the Sun (1987) REMUX 1080p Latino – CMHDD pelicula completa, Empire of the Sun (1987) REMUX 1080p Latino – CMHDD descargar gratis, descargar Empire of the Sun (1987) REMUX 1080p Latino – CMHDD pelicula latino, Empire of the Sun (1987) REMUX 1080p Latino – CMHDD 1 link mega, Empire of the Sun (1987) REMUX 1080p Latino – CMHDD 1 link google drive, Empire of the Sun (1987) REMUX 1080p Latino – CMHDD hd 1080p latino.
Comentarios 0