×

¿Problemas para descargar con Mozilla, EDGE? Deshabilita la opción "Abrir vinculos en una pestaña nueva" tal como lo muestra ésta imagen.

Emergency (2022) AMZN WEB-DL 1080p Latino

428 vistas

Información de Emergency (2022) AMZN WEB-DL 1080p Latino

Datos de la película

  • Calidad: 1080p
  • Audio: Español Latino AC3 5.1 WEB-DL - Ingles AC3 5.1 WEB-DL
  • Subtitulos: Español Latino SRT- FORZADOS SRT
  • Resolución: 1920x800
  • Formato: MKV
  • Codec: H.264
  • Encoder: cinemaniahdd
  • Mediainfo: Clic para Mostrar Datos Ver
  • Emergency (2022) AMZN WEB-DL 1080p Latino [CNMNHDD].mkv
    Format                      : Matroska
    Format version              : Version 4
    File size                   : 5.14 GiB
    Duration                    : 1 h 45 min
    Overall bit rate            : 6 985 kb/s
    Movie name                  : Emergency (2022) - CinemaniaHDD.Net
    Encoded date                : UTC 2022-05-27 01:29:58
    Writing application         : mkvmerge v56.1.0 ('My Friend') 64-bit
    Writing library             : libebml v1.4.2 + libmatroska v1.6.4

    Video
    ID                          : 1
    Format                      : AVC
    Format/Info                 : Advanced Video Codec
    Format profile              : High@L4
    Format settings             : CABAC / 4 Ref Frames
    Format settings, CABAC      : Yes
    Format settings, Reference  : 4 frames
    Codec ID                    : V_MPEG4/ISO/AVC
    Duration                    : 1 h 45 min
    Bit rate mode               : Constant
    Bit rate                    : 5 063 kb/s
    Nominal bit rate            : 10 000 kb/s
    Width                       : 1 920 pixels
    Height                      : 800 pixels
    Display aspect ratio        : 2.40:1
    Frame rate mode             : Constant
    Frame rate                  : 23.976 (24000/1001) FPS
    Color space                 : YUV
    Chroma subsampling          : 4:2:0
    Bit depth                   : 8 bits
    Scan type                   : Progressive
    Bits/(Pixel*Frame)          : 0.137
    Stream size                 : 3.73 GiB (72%)
    Title                       : CinemaniaHDD
    Default                     : Yes
    Forced                      : No
    Color range                 : Limited
    Color primaries             : BT.709
    Transfer characteristics    : BT.709
    Matrix coefficients         : BT.709

    Audio #1
    ID                          : 2
    Format                      : AC-3
    Format/Info                 : Audio Coding 3
    Commercial name             : Dolby Digital
    Codec ID                    : A_AC3
    Duration                    : 1 h 45 min
    Bit rate mode               : Constant
    Bit rate                    : 640 kb/s
    Channel(s)                  : 6 channels
    Channel layout              : L R C LFE Ls Rs
    Sampling rate               : 48.0 kHz
    Frame rate                  : 31.250 FPS (1536 SPF)
    Compression mode            : Lossy
    Stream size                 : 482 MiB (9%)
    Title                       : Español latino [CinemaniaHDD]
    Language                    : Spanish
    Service kind                : Complete Main
    Default                     : Yes
    Forced                      : No

    Audio #2
    ID                          : 3
    Format                      : E-AC-3
    Format/Info                 : Enhanced AC-3
    Commercial name             : Dolby Digital Plus
    Codec ID                    : A_EAC3
    Duration                    : 1 h 45 min
    Bit rate mode               : Constant
    Bit rate                    : 640 kb/s
    Channel(s)                  : 6 channels
    Channel layout              : L R C LFE Ls Rs
    Sampling rate               : 48.0 kHz
    Frame rate                  : 31.250 FPS (1536 SPF)
    Compression mode            : Lossy
    Stream size                 : 482 MiB (9%)
    Title                       : Español latino / E-AC3 [CinemaniaHDD]
    Language                    : Spanish
    Service kind                : Complete Main
    Default                     : No
    Forced                      : No

    Audio #3
    ID                          : 4
    Format                      : E-AC-3
    Format/Info                 : Enhanced AC-3
    Commercial name             : Dolby Digital Plus
    Codec ID                    : A_EAC3
    Duration                    : 1 h 45 min
    Bit rate mode               : Constant
    Bit rate                    : 640 kb/s
    Channel(s)                  : 6 channels
    Channel layout              : L R C LFE Ls Rs
    Sampling rate               : 48.0 kHz
    Frame rate                  : 31.250 FPS (1536 SPF)
    Compression mode            : Lossy
    Stream size                 : 482 MiB (9%)
    Title                       : Inglés [CinemaniaHDD]
    Language                    : English
    Service kind                : Complete Main
    Default                     : No
    Forced                      : No

    Text #1
    ID                          : 5
    Format                      : UTF-8
    Codec ID                    : S_TEXT/UTF8
    Codec ID/Info               : UTF-8 Plain Text
    Duration                    : 1 h 26 min
    Bit rate                    : 1 b/s
    Count of elements           : 22
    Stream size                 : 680 Bytes (0%)
    Title                       : Forzados [CinemaniaHDD]
    Language                    : Spanish
    Default                     : Yes
    Forced                      : Yes

    Text #2
    ID                          : 6
    Format                      : UTF-8
    Codec ID                    : S_TEXT/UTF8
    Codec ID/Info               : UTF-8 Plain Text
    Duration                    : 1 h 43 min
    Bit rate                    : 62 b/s
    Count of elements           : 1646
    Stream size                 : 47.1 KiB (0%)
    Title                       : Español latino [CinemaniaHDD]
    Language                    : Spanish
    Default                     : No
    Forced                      : No

    Menu
    00:00:00.000                : Amazon Studios
    00:00:20.000                : Scene 2
    00:01:41.000                : Scene 3
    00:04:13.000                : Scene 4
    00:06:43.000                : Scene 5
    00:13:02.000                : Scene 6
    00:16:29.000                : Scene 7
    00:20:35.000                : Scene 8
    00:28:34.000                : Scene 9
    00:32:03.000                : Scene 10
    00:35:38.000                : Scene 11
    00:37:08.000                : Scene 12
    00:41:40.000                : Scene 13
    00:44:47.000                : Scene 14
    00:50:03.000                : Scene 15
    00:50:49.000                : Scene 16
    00:53:06.000                : Scene 17
    00:56:15.000                : Scene 18
    00:57:17.000                : Scene 19
    01:03:32.000                : Scene 20
    01:04:21.000                : Scene 21
    01:12:17.000                : Scene 22
    01:13:41.000                : Scene 23
    01:20:16.000                : Scene 24
    01:23:57.000                : Scene 25
    01:25:24.000                : Scene 26
    01:32:08.000                : Scene 27
    01:33:26.000                : Scene 28
    01:34:35.000                : Scene 29
    01:37:43.000                : End Credits

     

  • Peso: 5.14 GiB

Sinopsis

Listos para una noche legendaria de fiestas, tres estudiantes universitarios deben sopesar los pros y los contras de llamar a la policía cuando se enfrentan a una situación inesperada.

Ficha técnica

Video trailer de la película

Enlaces de descarga

Rip de Bluray

Descargar Emergency (2022) AMZN WEB-DL 1080p Latino




Aportes de DPeliculasHDmega la pass es:dpeliculashdmega.org Aportes de CinemaniaHD la pass es:cinemaniahdd.com
Guardado en : Comedia , Drama , Suspenso

Películas relacionadas

descargar Emergency (2022) AMZN WEB-DL 1080p Latino 1080p 1080p gratis, Emergency (2022) AMZN WEB-DL 1080p Latino 1080p mega 1 link, Emergency (2022) AMZN WEB-DL 1080p Latino 1080p pelicula completa, descargar Emergency (2022) AMZN WEB-DL 1080p Latino 1080p gratis en mega.

Emergency (2022) AMZN WEB-DL 1080p Latino pelicula full hd, Emergency (2022) AMZN WEB-DL 1080p Latino mega latino, Emergency (2022) AMZN WEB-DL 1080p Latino 4k latino, Emergency (2022) AMZN WEB-DL 1080p Latino pelicula completa, Emergency (2022) AMZN WEB-DL 1080p Latino descargar gratis, descargar Emergency (2022) AMZN WEB-DL 1080p Latino pelicula latino, Emergency (2022) AMZN WEB-DL 1080p Latino 1 link mega, Emergency (2022) AMZN WEB-DL 1080p Latino 1 link google drive, Emergency (2022) AMZN WEB-DL 1080p Latino hd 1080p latino.
Comentarios 0