×

¿Problemas para descargar con Mozilla, EDGE? Deshabilita la opción "Abrir vinculos en una pestaña nueva" tal como lo muestra ésta imagen.

Elysium (2013) Full HD 1080p Latino – CMHDD

246 vistas

Información de Elysium (2013) Full HD 1080p Latino – CMHDD

Datos de la película

  • Calidad: Full 1080p
  • Audio: Español Latino AC3 5.1 BLURAY - Ingles DTS 5.1 BLURAY
  • Subtitulos: Español Latino PGS
  • Resolución: 1920x1080p
  • Formato: MKV
  • Codec: H.264
  • Encoder: Dracarys
  • Mediainfo: Clic para Mostrar Datos Ver
  • Format                      : Matroska
    Format version              : Version 4
    File size                   : 6.04 GiB
    Duration                    : 1 h 49 min
    Overall bit rate mode       : Variable
    Overall bit rate            : 7 897 kb/s
    Movie name                  : Elysium (2013) Full HD 1080p Latino - CMHDD
    Encoded date                : UTC 2021-02-07 20:25:58
    Writing application         : mkvmerge v51.0.0 ('I Wish') 64-bit
    Writing library             : libebml v1.4.0 + libmatroska v1.6.2

    Video
    ID                          : 1
    Format                      : AVC
    Format/Info                 : Advanced Video Codec
    Format profile              : High@L4.1
    Format settings             : CABAC / 4 Ref Frames
    Format settings, CABAC      : Yes
    Format settings, Reference  : 4 frames
    Codec ID                    : V_MPEG4/ISO/AVC
    Duration                    : 1 h 49 min
    Bit rate                    : 4 467 kb/s
    Width                       : 1 920 pixels
    Height                      : 1 080 pixels
    Display aspect ratio        : 16:9
    Frame rate mode             : Constant
    Frame rate                  : 23.976 (24000/1001) FPS
    Color space                 : YUV
    Chroma subsampling          : 4:2:0
    Bit depth                   : 8 bits
    Scan type                   : Progressive
    Bits/(Pixel*Frame)          : 0.090
    Stream size                 : 3.42 GiB (57%)
    Writing library             : x264 core 157 r2935 545de2f
    Encoding settings           : cabac=1 / ref=4 / deblock=1:0:0 / analyse=0x3:0x133 / me=tesa / subme=11 / psy=1 / psy_rd=1.00:0.00 / mixed_ref=1 / me_range=24 / chroma_me=1 / trellis=2 / 8x8dct=1 / cqm=0 / deadzone=21,11 / fast_pskip=0 / chroma_qp_offset=-2 / threads=24 / lookahead_threads=6 / sliced_threads=0 / nr=0 / decimate=1 / interlaced=0 / bluray_compat=0 / constrained_intra=0 / bframes=16 / b_pyramid=2 / b_adapt=2 / b_bias=0 / direct=3 / weightb=1 / open_gop=0 / weightp=2 / keyint=240 / keyint_min=24 / scenecut=40 / intra_refresh=0 / rc_lookahead=60 / rc=crf / mbtree=1 / crf=20.0 / qcomp=0.60 / qpmin=0 / qpmax=69 / qpstep=4 / vbv_maxrate=62500 / vbv_bufsize=78125 / crf_max=0.0 / nal_hrd=none / filler=0 / ip_ratio=1.40 / aq=1:1.00
    Default                     : Yes
    Forced                      : No
    Color range                 : Limited
    Color primaries             : BT.709
    Transfer characteristics    : BT.709
    Matrix coefficients         : BT.709

    Audio #1
    ID                          : 2
    Format                      : AC-3
    Format/Info                 : Audio Coding 3
    Commercial name             : Dolby Digital
    Codec ID                    : A_AC3
    Duration                    : 1 h 49 min
    Bit rate mode               : Constant
    Bit rate                    : 640 kb/s
    Channel(s)                  : 6 channels
    Channel layout              : L R C LFE Ls Rs
    Sampling rate               : 48.0 kHz
    Frame rate                  : 31.250 FPS (1536 SPF)
    Compression mode            : Lossy
    Stream size                 : 502 MiB (8%)
    Language                    : Spanish
    Service kind                : Complete Main
    Default                     : Yes
    Forced                      : No

    Audio #2
    ID                          : 3
    Format                      : DTS XLL
    Format/Info                 : Digital Theater Systems
    Commercial name             : DTS-HD Master Audio
    Codec ID                    : A_DTS
    Duration                    : 1 h 49 min
    Bit rate mode               : Variable
    Bit rate                    : 2 775 kb/s
    Channel(s)                  : 8 channels
    Channel layout              : C L R LFE Lb Rb Lss Rss
    Sampling rate               : 48.0 kHz
    Frame rate                  : 93.750 FPS (512 SPF)
    Bit depth                   : 16 bits
    Compression mode            : Lossless
    Stream size                 : 2.12 GiB (35%)
    Language                    : English
    Default                     : No
    Forced                      : No

    Text #1
    ID                          : 4
    Format                      : PGS
    Muxing mode                 : zlib
    Codec ID                    : S_HDMV/PGS
    Codec ID/Info               : Picture based subtitle format used on BDs/HD-DVDs
    Duration                    : 1 h 48 min
    Bit rate                    : 23.7 kb/s
    Count of elements           : 2114
    Stream size                 : 18.4 MiB (0%)
    Language                    : Spanish
    Default                     : No
    Forced                      : No

    Text #2
    ID                          : 5
    Format                      : PGS
    Muxing mode                 : zlib
    Codec ID                    : S_HDMV/PGS
    Codec ID/Info               : Picture based subtitle format used on BDs/HD-DVDs
    Duration                    : 1 h 48 min
    Bit rate                    : 1 490 b/s
    Count of elements           : 130
    Stream size                 : 1.16 MiB (0%)
    Language                    : Spanish
    Default                     : Yes
    Forced                      : No

  • Peso: 6.04 GiB

Sinopsis

En el año 2159 existen dos clases de personas, los ricos que viven en una estación espacial llamada Elysium, y el resto, que viven en un superpoblada y en ruinas Tierra. La secretaria Rhodes, una dura gobernante oficial, no parará ante nada para reforzar la ley anti-migración y preservar así el lujoso estilo de vida de los ciudadanos de Elysium. Pero eso no detendrá a las personas de la Tierra de intentar entrar, por cualquier medio posible. Max acepta una misión casi utópica, pero que, si tuviera éxito, significaría la conquista de la igualdad entre las personas de esos dos mundos tan opuestos.

Ficha técnica

Video trailer de la película

Enlaces de descarga

Rip de Bluray

Descargar Elysium (2013) Full HD 1080p Latino – CMHDD




Aportes de DPeliculasHDmega la pass es:dpeliculashdmega.org Aportes de CinemaniaHD la pass es:cinemaniahdd.com
Guardado en : Acción , Ciencia ficción , Drama , Suspenso

Películas relacionadas

descargar Elysium (2013) Full HD 1080p Latino – CMHDD Full 1080p 1080p gratis, Elysium (2013) Full HD 1080p Latino – CMHDD Full 1080p mega 1 link, Elysium (2013) Full HD 1080p Latino – CMHDD Full 1080p pelicula completa, descargar Elysium (2013) Full HD 1080p Latino – CMHDD Full 1080p gratis en mega.

Elysium (2013) Full HD 1080p Latino – CMHDD pelicula full hd, Elysium (2013) Full HD 1080p Latino – CMHDD mega latino, Elysium (2013) Full HD 1080p Latino – CMHDD 4k latino, Elysium (2013) Full HD 1080p Latino – CMHDD pelicula completa, Elysium (2013) Full HD 1080p Latino – CMHDD descargar gratis, descargar Elysium (2013) Full HD 1080p Latino – CMHDD pelicula latino, Elysium (2013) Full HD 1080p Latino – CMHDD 1 link mega, Elysium (2013) Full HD 1080p Latino – CMHDD 1 link google drive, Elysium (2013) Full HD 1080p Latino – CMHDD hd 1080p latino.
Comentarios 0