×

¿Problemas para descargar con Mozilla, EDGE? Deshabilita la opción "Abrir vinculos en una pestaña nueva" tal como lo muestra ésta imagen.

Elysium (2013) 4K REMUX HDR Latino – CMHDD

330 vistas

Información de Elysium (2013) 4K REMUX HDR Latino – CMHDD

Datos de la película

  • Calidad: 4K HDR
  • Audio: Español Latino AC3 5.1 BLURAY - Ingles DTS-HD Master 7.1 BLURAY
  • Subtitulos: Español Latino PGS
  • Resolución: 3840x2160p
  • Formato: MKV
  • Codec: H.264
  • Encoder: Dracarys
  • Mediainfo: Clic para Mostrar Datos Ver
  • Format                      : Matroska
    Format version              : Version 4
    File size                   : 55.6 GiB
    Duration                    : 1 h 49 min
    Overall bit rate mode       : Variable
    Overall bit rate            : 72.7 Mb/s
    Movie name                  : Elysium (2013) 4K REMUX HDR Latino - CMHDD
    Encoded date                : UTC 2021-02-05 05:00:50
    Writing application         : mkvmerge v51.0.0 ('I Wish') 64-bit
    Writing library             : libebml v1.4.0 + libmatroska v1.6.2

    Video
    ID                          : 1
    ID in the original source m : 4113 (0x1011)
    Format                      : HEVC
    Format/Info                 : High Efficiency Video Coding
    Format profile              : Main 10@L5.1@High
    HDR format                  : SMPTE ST 2086, HDR10 compatible
    Codec ID                    : V_MPEGH/ISO/HEVC
    Duration                    : 1 h 49 min
    Bit rate                    : 63.0 Mb/s
    Width                       : 3 840 pixels
    Height                      : 2 160 pixels
    Display aspect ratio        : 16:9
    Frame rate mode             : Constant
    Frame rate                  : 23.976 (24000/1001) FPS
    Color space                 : YUV
    Chroma subsampling          : 4:2:0 (Type 2)
    Bit depth                   : 10 bits
    Bits/(Pixel*Frame)          : 0.317
    Stream size                 : 48.3 GiB (87%)
    Language                    : English
    Default                     : No
    Forced                      : No
    Color range                 : Limited
    Color primaries             : BT.2020
    Transfer characteristics    : PQ
    Matrix coefficients         : BT.2020 non-constant
    Mastering display color pri : Display P3
    Mastering display luminance : min: 0.0001 cd/m2, max: 1000 cd/m2
    Maximum Content Light Level : 2594 cd/m2
    Maximum Frame-Average Light : 1698 cd/m2
    Original source medium      : Blu-ray

    Audio #1
    ID                          : 2
    ID in the original source m : 4369 (0x1111)
    Format                      : AC-3
    Format/Info                 : Audio Coding 3
    Commercial name             : Dolby Digital
    Codec ID                    : A_AC3
    Duration                    : 1 h 49 min
    Bit rate mode               : Constant
    Bit rate                    : 640 kb/s
    Channel(s)                  : 6 channels
    Channel layout              : L R C LFE Ls Rs
    Sampling rate               : 48.0 kHz
    Frame rate                  : 31.250 FPS (1536 SPF)
    Compression mode            : Lossy
    Stream size                 : 502 MiB (1%)
    Language                    : Spanish
    Service kind                : Complete Main
    Default                     : Yes
    Forced                      : No
    Original source medium      : Blu-ray

    Audio #2
    ID                          : 3
    ID in the original source m : 4352 (0x1100)
    Format                      : MLP FBA 16-ch
    Format/Info                 : Meridian Lossless Packing FBA with 16-channel presentation
    Commercial name             : Dolby TrueHD with Dolby Atmos
    Codec ID                    : A_TRUEHD
    Duration                    : 1 h 49 min
    Bit rate mode               : Variable
    Bit rate                    : 4 696 kb/s
    Maximum bit rate            : 8 076 kb/s
    Channel(s)                  : 8 channels
    Channel layout              : L R C LFE Ls Rs Lb Rb
    Sampling rate               : 48.0 kHz
    Frame rate                  : 1 200.000 FPS (40 SPF)
    Compression mode            : Lossless
    Stream size                 : 3.59 GiB (6%)
    Language                    : English
    Default                     : No
    Forced                      : No
    Original source medium      : Blu-ray
    Number of dynamic objects   : 11
    Bed channel count           : 1 channel
    Bed channel configuration   : LFE

    Audio #3
    ID                          : 4
    Format                      : DTS XLL
    Format/Info                 : Digital Theater Systems
    Commercial name             : DTS-HD Master Audio
    Codec ID                    : A_DTS
    Duration                    : 1 h 49 min
    Bit rate mode               : Variable
    Bit rate                    : 4 206 kb/s
    Channel(s)                  : 8 channels
    Channel layout              : C L R LFE Lb Rb Lss Rss
    Sampling rate               : 48.0 kHz
    Frame rate                  : 93.750 FPS (512 SPF)
    Bit depth                   : 24 bits
    Compression mode            : Lossless
    Stream size                 : 3.22 GiB (6%)
    Language                    : English
    Default                     : No
    Forced                      : No

    Text #1
    ID                          : 5
    ID in the original source m : 4794 (0x12BA)
    Format                      : PGS
    Muxing mode                 : zlib
    Codec ID                    : S_HDMV/PGS
    Codec ID/Info               : Picture based subtitle format used on BDs/HD-DVDs
    Duration                    : 1 h 48 min
    Bit rate                    : 23.7 kb/s
    Count of elements           : 2114
    Stream size                 : 18.4 MiB (0%)
    Language                    : Spanish
    Default                     : No
    Forced                      : No
    Original source medium      : Blu-ray

    Text #2
    ID                          : 6
    ID in the original source m : 4794 (0x12BA)
    Format                      : PGS
    Muxing mode                 : zlib
    Codec ID                    : S_HDMV/PGS
    Codec ID/Info               : Picture based subtitle format used on BDs/HD-DVDs
    Duration                    : 1 h 48 min
    Bit rate                    : 1 490 b/s
    Count of elements           : 130
    Stream size                 : 1.16 MiB (0%)
    Language                    : Spanish
    Default                     : Yes
    Forced                      : No
    Original source medium      : Blu-ray

    Menu
    00:00:00.000                : en:Chapter 01
    00:07:02.588                : en:Chapter 02
    00:11:59.343                : en:Chapter 03
    00:19:27.541                : en:Chapter 04
    00:25:34.824                : en:Chapter 05
    00:30:02.342                : en:Chapter 06
    00:39:22.026                : en:Chapter 07
    00:57:43.918                : en:Chapter 08
    01:00:59.197                : en:Chapter 09
    01:04:09.637                : en:Chapter 10
    01:07:22.663                : en:Chapter 11
    01:10:33.938                : en:Chapter 12
    01:16:59.865                : en:Chapter 13
    01:22:50.090                : en:Chapter 14
    01:30:19.914                : en:Chapter 15
    01:35:44.280                : en:Chapter 16

  • Peso: 55.6 GiB

Sinopsis

En el año 2159 existen dos clases de personas, los ricos que viven en una estación espacial llamada Elysium, y el resto, que viven en un superpoblada y en ruinas Tierra. La secretaria Rhodes, una dura gobernante oficial, no parará ante nada para reforzar la ley anti-migración y preservar así el lujoso estilo de vida de los ciudadanos de Elysium. Pero eso no detendrá a las personas de la Tierra de intentar entrar, por cualquier medio posible. Max acepta una misión casi utópica, pero que, si tuviera éxito, significaría la conquista de la igualdad entre las personas de esos dos mundos tan opuestos.

Ficha técnica

Video trailer de la película

Enlaces de descarga

Rip de Bluray

Descargar Elysium (2013) 4K REMUX HDR Latino – CMHDD


Aportes de DPeliculasHDmega la pass es:dpeliculashdmega.org Aportes de CinemaniaHD la pass es:cinemaniahdd.com
Guardado en : Acción , Ciencia ficción , Drama , Suspenso

Películas relacionadas

  • Shotgun Wedding (2022) AMZN WEB-DL 1080p Latino

    Shotgun Wedding (2022) AMZN WEB-DL 1080p Latino

    2022
    Shotgun Wedding (2022) AMZN WEB-DL 1080p Latino

    1h 41m 2022

    Darcy y Tom reúnen a sus familias para la boda de destino definitiva, pero cuando toman como rehenes...

    Director: Jason Moore

    Género: Acción

    Actores: Steve Coulter

  • M3GAN (2023) AMZN WEB-DL 4K UHD HDR Latino

    M3GAN (2023) AMZN WEB-DL 4K UHD HDR Latino

    2022
    M3GAN (2023) AMZN WEB-DL 4K UHD HDR Latino

    1h 42m 2022

    Descargar M3GAN (2023) AMZN WEB-DL 4K UHD HDR Latino. Cuando Gemma se convierte en la cuidadora de su...

    Director: Stephen W. Moore

    Género: 4K HDR

    Actores: Violet McGraw

  • M3GAN (2022) MA WEB-DL 1080p Latino

    M3GAN (2022) MA WEB-DL 1080p Latino

    2022
    M3GAN (2022) MA WEB-DL 1080p Latino

    1h 42m 2022

    Descargar M3GAN (2022) MA WEB-DL 1080p Latino. Cuando Gemma se convierte en la cuidadora de su sobrina...

    Director: Stephen W. Moore

    Género: Ciencia ficción

    Actores: Violet McGraw

  • Mar de sangre (2022) WEB-DL 1080p Latino

    Mar de sangre (2022) WEB-DL 1080p Latino

    2022
    Mar de sangre (2022) WEB-DL 1080p Latino

    1h 27m 2022

    Descargar Mar de sangre (2022) WEB-DL 1080p Latino. Un grupo de amigos que disfrutan de un fin de semana...

    Director: James Nunn

    Género: Acción

    Actores: Thomas Michael Flynn

descargar Elysium (2013) 4K REMUX HDR Latino – CMHDD 4K HDR 1080p gratis, Elysium (2013) 4K REMUX HDR Latino – CMHDD 4K HDR mega 1 link, Elysium (2013) 4K REMUX HDR Latino – CMHDD 4K HDR pelicula completa, descargar Elysium (2013) 4K REMUX HDR Latino – CMHDD 4K HDR gratis en mega.

Elysium (2013) 4K REMUX HDR Latino – CMHDD pelicula full hd, Elysium (2013) 4K REMUX HDR Latino – CMHDD mega latino, Elysium (2013) 4K REMUX HDR Latino – CMHDD 4k latino, Elysium (2013) 4K REMUX HDR Latino – CMHDD pelicula completa, Elysium (2013) 4K REMUX HDR Latino – CMHDD descargar gratis, descargar Elysium (2013) 4K REMUX HDR Latino – CMHDD pelicula latino, Elysium (2013) 4K REMUX HDR Latino – CMHDD 1 link mega, Elysium (2013) 4K REMUX HDR Latino – CMHDD 1 link google drive, Elysium (2013) 4K REMUX HDR Latino – CMHDD hd 1080p latino.
Comentarios 0