×

¿Problemas para descargar con Mozilla, EDGE? Deshabilita la opción "Abrir vinculos en una pestaña nueva" tal como lo muestra ésta imagen.

Elvis (2022) WEB-DL 4K UHD HDR Latino

680 vistas

Información de Elvis (2022) WEB-DL 4K UHD HDR Latino

Datos de la película

  • Calidad: WEBDL
  • Audio: Español Latino AC3 5.1 WEB-DL - Ingles AC3 5.1 WEB-DL
  • Subtitulos: Español Latino SRT- FORZADOS SRT
  • Resolución: 3840x1604p
  • Formato: MKV
  • Codec: HEVC
  • Encoder: Melkor
  • Mediainfo: Clic para Mostrar Datos Ver
  • Elvis (2022) WEB UHD HDR Latino.mkv
    Format                      : Matroska
    Format version              : Version 4
    File size                   : 28.5 GiB
    Duration                    : 2 h 39 min
    Overall bit rate            : 25.6 Mb/s
    Movie name                  : Elvis (2022) CinemaniaHDD.Net
    Encoded date                : UTC 2022-08-08 00:14:57
    Writing application         : mkvmerge v56.1.0 ('My Friend') 64-bit
    Writing library             : libebml v1.4.2 + libmatroska v1.6.4
    Attachments                 : CINEMANIAHD.png

    Video
    ID                          : 1
    Format                      : HEVC
    Format/Info                 : High Efficiency Video Coding
    Format profile              : Main 10@L5@High
    HDR format                  : SMPTE ST 2086, HDR10 compatible
    Codec ID                    : V_MPEGH/ISO/HEVC
    Duration                    : 2 h 39 min
    Bit rate                    : 24.4 Mb/s
    Width                       : 3 840 pixels
    Height                      : 1 604 pixels
    Display aspect ratio        : 2.40:1
    Frame rate mode             : Constant
    Frame rate                  : 23.976 (24000/1001) FPS
    Color space                 : YUV
    Chroma subsampling          : 4:2:0 (Type 2)
    Bit depth                   : 10 bits
    Bits/(Pixel*Frame)          : 0.166
    Stream size                 : 27.2 GiB (95%)
    Title                       : Web 2160p HDR [CinemaniaHDD]
    Default                     : Yes
    Forced                      : No
    Color range                 : Limited
    Color primaries             : BT.2020
    Transfer characteristics    : PQ
    Matrix coefficients         : BT.2020 non-constant
    Mastering display color pri : BT.2020
    Mastering display luminance : min: 0.0050 cd/m2, max: 1000 cd/m2
    Maximum Content Light Level : 1115 cd/m2
    Maximum Frame-Average Light : 333 cd/m2

    Audio #1
    ID                          : 2
    Format                      : AC-3
    Format/Info                 : Audio Coding 3
    Commercial name             : Dolby Digital
    Codec ID                    : A_AC3
    Duration                    : 2 h 39 min
    Bit rate mode               : Constant
    Bit rate                    : 384 kb/s
    Channel(s)                  : 6 channels
    Channel layout              : L R C LFE Ls Rs
    Sampling rate               : 48.0 kHz
    Frame rate                  : 31.250 FPS (1536 SPF)
    Compression mode            : Lossy
    Stream size                 : 437 MiB (2%)
    Title                       : Español Latino [CinemaniaHDD]
    Language                    : Spanish
    Service kind                : Complete Main
    Default                     : Yes
    Forced                      : Yes

    Audio #2
    ID                          : 3
    Format                      : E-AC-3 JOC
    Format/Info                 : Enhanced AC-3 with Joint Object Coding
    Commercial name             : Dolby Digital Plus with Dolby Atmos
    Codec ID                    : A_EAC3
    Duration                    : 2 h 39 min
    Bit rate mode               : Constant
    Bit rate                    : 768 kb/s
    Channel(s)                  : 6 channels
    Channel layout              : L R C LFE Ls Rs
    Sampling rate               : 48.0 kHz
    Frame rate                  : 31.250 FPS (1536 SPF)
    Compression mode            : Lossy
    Stream size                 : 875 MiB (3%)
    Title                       : Ingles [CinemaniaHDD]
    Language                    : English
    Service kind                : Complete Main
    Default                     : No
    Forced                      : No
    Complexity index            : 16
    Number of dynamic objects   : 15
    Bed channel count           : 1 channel
    Bed channel configuration   : LFE

    Text #1
    ID                          : 4
    Format                      : UTF-8
    Codec ID                    : S_TEXT/UTF8
    Codec ID/Info               : UTF-8 Plain Text
    Duration                    : 2 h 38 min
    Bit rate                    : 6 b/s
    Count of elements           : 206
    Stream size                 : 8.07 KiB (0%)
    Title                       : Forzados-SRT [CinemaniaHDD]
    Language                    : Spanish
    Default                     : Yes
    Forced                      : Yes

    Text #2
    ID                          : 5
    Format                      : UTF-8
    Codec ID                    : S_TEXT/UTF8
    Codec ID/Info               : UTF-8 Plain Text
    Duration                    : 2 h 38 min
    Bit rate                    : 65 b/s
    Count of elements           : 2101
    Stream size                 : 76.6 KiB (0%)
    Title                       : Español-SRT [CinemaniaHDD]
    Language                    : Spanish
    Default                     : No
    Forced                      : No

    Text #3
    ID                          : 6
    Format                      : UTF-8
    Codec ID                    : S_TEXT/UTF8
    Codec ID/Info               : UTF-8 Plain Text
    Duration                    : 2 h 39 min
    Bit rate                    : 88 b/s
    Count of elements           : 2827
    Stream size                 : 103 KiB (0%)
    Title                       : Ingles-SRT [CinemaniaHDD]
    Language                    : English
    Default                     : No
    Forced                      : No

    Menu
    00:00:00.000                : Chapter 01
    00:09:06.379                : Chapter 02
    00:14:30.995                : Chapter 03
    00:22:05.700                : Chapter 04
    00:29:46.703                : Chapter 05
    00:38:05.910                : Chapter 06
    00:46:20.447                : Chapter 07
    00:53:33.380                : Chapter 08
    01:03:28.641                : Chapter 09
    01:12:04.407                : Chapter 10
    01:21:09.953                : Chapter 11
    01:30:16.583                : Chapter 12
    01:39:18.708                : Chapter 13
    01:48:44.315                : Chapter 14
    01:57:10.238                : Chapter 15
    02:04:45.485                : Chapter 16
    02:13:03.274                : Chapter 17
    02:22:34.971                : Chapter 18
    02:29:55.203                : Chapter 19

  • Peso: 28.5 GiB

Sinopsis

Descargar Elvis (2022) WEB-DL 4K UHD HDR Latino. La película explora la vida y la música de Elvis Presley (Butler) a través del prisma de su relación con el coronel Tom Parker (Hanks), su enigmático manager. La historia profundiza en la compleja dinámica que existía entre Presley y Parker que abarca más de 20 años, desde el ascenso de Presley a la fama hasta su estrellato sin precedentes, en el contexto de la revolución cultural y la pérdida de la inocencia en Estados Unidos. Y en el centro de ese periplo está Priscilla Presley (Olivia DeJonge), una de las personas más importantes e influyentes en la vida de Elvis.

Ficha técnica

Video trailer de la película

Enlaces de descarga

Rip de Bluray

Descargar Elvis (2022) WEB-DL 4K UHD HDR Latino




Aportes de DPeliculasHDmega la pass es:dpeliculashdmega.org Aportes de CinemaniaHD la pass es:cinemaniahdd.com
Guardado en : 4K HDR , 4K UHD , Drama , Historia , Música

Películas relacionadas

descargar Elvis (2022) WEB-DL 4K UHD HDR Latino WEBDL 1080p gratis, Elvis (2022) WEB-DL 4K UHD HDR Latino WEBDL mega 1 link, Elvis (2022) WEB-DL 4K UHD HDR Latino WEBDL pelicula completa, descargar Elvis (2022) WEB-DL 4K UHD HDR Latino WEBDL gratis en mega.

Elvis (2022) WEB-DL 4K UHD HDR Latino pelicula full hd, Elvis (2022) WEB-DL 4K UHD HDR Latino mega latino, Elvis (2022) WEB-DL 4K UHD HDR Latino 4k latino, Elvis (2022) WEB-DL 4K UHD HDR Latino pelicula completa, Elvis (2022) WEB-DL 4K UHD HDR Latino descargar gratis, descargar Elvis (2022) WEB-DL 4K UHD HDR Latino pelicula latino, Elvis (2022) WEB-DL 4K UHD HDR Latino 1 link mega, Elvis (2022) WEB-DL 4K UHD HDR Latino 1 link google drive, Elvis (2022) WEB-DL 4K UHD HDR Latino hd 1080p latino.
Comentarios 0