×

¿Problemas para descargar con Mozilla, EDGE? Deshabilita la opción "Abrir vinculos en una pestaña nueva" tal como lo muestra ésta imagen.

Elvis (2022) REMUX 1080p Latino

33 vistas

Información de Elvis (2022) REMUX 1080p Latino

Datos de la película

  • Calidad: Full 1080p
  • Audio: Se especifica abajo de la Sinopsis
  • Subtitulos: Español Latino PGS - Ingles PGS
  • Resolución: 1920x1080p
  • Formato: MKV
  • Codec: H.264
  • Encoder: Melkor
  • Mediainfo: Clic para Mostrar Datos Ver
  • Elvis (2022) REMUX 1080p Latino.mkv
    Format                      : Matroska
    Format version              : Version 4
    File size                   : 32.1 GiB
    Duration                    : 2 h 39 min
    Overall bit rate mode       : Variable
    Overall bit rate            : 28.9 Mb/s
    Movie name                  : Elvis (2022) CinemaniaHDD.Net
    Encoded date                : UTC 2022-09-07 04:43:59
    Writing application         : mkvmerge v56.1.0 ('My Friend') 64-bit
    Writing library             : libebml v1.4.2 + libmatroska v1.6.4
    Attachments                 : CINEMANIAHD.png

    Video
    ID                          : 1
    Format                      : AVC
    Format/Info                 : Advanced Video Codec
    Format profile              : High@L4.1
    Format settings             : CABAC / 4 Ref Frames
    Format settings, CABAC      : Yes
    Format settings, Reference  : 4 frames
    Codec ID                    : V_MPEG4/ISO/AVC
    Duration                    : 2 h 39 min
    Bit rate mode               : Variable
    Bit rate                    : 24.2 Mb/s
    Maximum bit rate            : 33.2 Mb/s
    Width                       : 1 920 pixels
    Height                      : 1 080 pixels
    Display aspect ratio        : 16:9
    Frame rate mode             : Constant
    Frame rate                  : 23.976 (24000/1001) FPS
    Color space                 : YUV
    Chroma subsampling          : 4:2:0
    Bit depth                   : 8 bits
    Scan type                   : Progressive
    Bits/(Pixel*Frame)          : 0.487
    Stream size                 : 26.9 GiB (84%)
    Title                       : REMUX HD1080p [CinemaniaHDD]
    Default                     : Yes
    Forced                      : Yes

    Audio #1
    ID                          : 2
    Format                      : E-AC-3
    Format/Info                 : Enhanced AC-3
    Commercial name             : Dolby Digital Plus
    Codec ID                    : A_EAC3
    Duration                    : 2 h 39 min
    Bit rate mode               : Constant
    Bit rate                    : 640 kb/s
    Channel(s)                  : 6 channels
    Channel layout              : L R C LFE Ls Rs
    Sampling rate               : 48.0 kHz
    Frame rate                  : 31.250 FPS (1536 SPF)
    Compression mode            : Lossy
    Stream size                 : 729 MiB (2%)
    Title                       : Español Latino DDP [CinemaniaHDD]
    Language                    : Spanish
    Service kind                : Complete Main
    Default                     : No
    Forced                      : No

    Audio #2
    ID                          : 3
    Format                      : MLP FBA 16-ch
    Format/Info                 : Meridian Lossless Packing FBA with 16-channel presentation
    Commercial name             : Dolby TrueHD with Dolby Atmos
    Codec ID                    : A_TRUEHD
    Duration                    : 2 h 39 min
    Bit rate mode               : Variable
    Bit rate                    : 3 021 kb/s
    Maximum bit rate            : 4 668 kb/s
    Channel(s)                  : 8 channels
    Channel layout              : L R C LFE Ls Rs Lb Rb
    Sampling rate               : 48.0 kHz
    Frame rate                  : 1 200.000 FPS (40 SPF)
    Compression mode            : Lossless
    Stream size                 : 3.36 GiB (10%)
    Title                       : Ingles THD[CinemaniaHDD]
    Language                    : English
    Default                     : No
    Forced                      : No
    Number of dynamic objects   : 11
    Bed channel count           : 1 channel
    Bed channel configuration   : LFE

    Audio #3
    ID                          : 4
    Format                      : AC-3
    Format/Info                 : Audio Coding 3
    Commercial name             : Dolby Digital
    Codec ID                    : A_AC3
    Duration                    : 2 h 39 min
    Bit rate mode               : Constant
    Bit rate                    : 448 kb/s
    Channel(s)                  : 6 channels
    Channel layout              : L R C LFE Ls Rs
    Sampling rate               : 48.0 kHz
    Frame rate                  : 31.250 FPS (1536 SPF)
    Compression mode            : Lossy
    Stream size                 : 510 MiB (2%)
    Title                       : Español Latino AC3 [CinemaniaHDD]
    Language                    : Spanish
    Service kind                : Complete Main
    Default                     : Yes
    Forced                      : Yes

    Audio #4
    ID                          : 5
    Format                      : AC-3
    Format/Info                 : Audio Coding 3
    Commercial name             : Dolby Digital
    Codec ID                    : A_AC3
    Duration                    : 2 h 39 min
    Bit rate mode               : Constant
    Bit rate                    : 448 kb/s
    Channel(s)                  : 6 channels
    Channel layout              : L R C LFE Ls Rs
    Sampling rate               : 48.0 kHz
    Frame rate                  : 31.250 FPS (1536 SPF)
    Compression mode            : Lossy
    Stream size                 : 510 MiB (2%)
    Title                       : Ingles AC3 [CinemaniaHDD]
    Language                    : English
    Service kind                : Complete Main
    Default                     : No
    Forced                      : No

    Text #1
    ID                          : 6
    Format                      : PGS
    Muxing mode                 : zlib
    Codec ID                    : S_HDMV/PGS
    Codec ID/Info               : Picture based subtitle format used on BDs/HD-DVDs
    Duration                    : 2 h 38 min
    Bit rate                    : 38.5 kb/s
    Count of elements           : 4206
    Stream size                 : 43.6 MiB (0%)
    Title                       : Español-PGS [CinemaniaHDD]
    Language                    : Spanish
    Default                     : No
    Forced                      : No

    Text #2
    ID                          : 7
    Format                      : PGS
    Muxing mode                 : zlib
    Codec ID                    : S_HDMV/PGS
    Codec ID/Info               : Picture based subtitle format used on BDs/HD-DVDs
    Duration                    : 2 h 39 min
    Bit rate                    : 47.0 kb/s
    Count of elements           : 5370
    Stream size                 : 53.5 MiB (0%)
    Title                       : Ingles-PGS [CinemaniaHDD]
    Language                    : English
    Default                     : No
    Forced                      : No

    Text #3
    ID                          : 8
    Format                      : UTF-8
    Codec ID                    : S_TEXT/UTF8
    Codec ID/Info               : UTF-8 Plain Text
    Duration                    : 2 h 38 min
    Bit rate                    : 7 b/s
    Count of elements           : 207
    Stream size                 : 9.10 KiB (0%)
    Title                       : Forzados-SRT [CinemaniaHDD]
    Language                    : Spanish
    Default                     : Yes
    Forced                      : Yes

    Text #4
    ID                          : 9
    Format                      : UTF-8
    Codec ID                    : S_TEXT/UTF8
    Codec ID/Info               : UTF-8 Plain Text
    Duration                    : 2 h 38 min
    Bit rate                    : 66 b/s
    Count of elements           : 2101
    Stream size                 : 77.7 KiB (0%)
    Title                       : Español-SRT [CinemaniaHDD]
    Language                    : Spanish
    Default                     : No
    Forced                      : No

    Menu
    00:00:00.000                : Chapter 01
    00:09:07.046                : Chapter 02
    00:14:31.662                : Chapter 03
    00:22:06.367                : Chapter 04
    00:29:47.369                : Chapter 05
    00:38:06.576                : Chapter 06
    00:46:21.112                : Chapter 07
    00:53:34.044                : Chapter 08
    01:03:29.305                : Chapter 09
    01:12:05.071                : Chapter 10
    01:21:10.616                : Chapter 11
    01:30:17.245                : Chapter 12
    01:39:19.370                : Chapter 13
    01:48:44.977                : Chapter 14
    01:57:10.899                : Chapter 15
    02:04:46.145                : Chapter 16
    02:13:03.934                : Chapter 17
    02:22:35.630                : Chapter 18
    02:29:55.862                : Chapter 19

  • Peso: 32.1 GiB

Sinopsis

Descargar Elvis (2022) REMUX 1080p Latino. La película explora la vida y la música de Elvis Presley (Butler) a través del prisma de su relación con el coronel Tom Parker (Hanks), su enigmático manager. La historia profundiza en la compleja dinámica que existía entre Presley y Parker que abarca más de 20 años, desde el ascenso de Presley a la fama hasta su estrellato sin precedentes, en el contexto de la revolución cultural y la pérdida de la inocencia en Estados Unidos. Y en el centro de ese periplo está Priscilla Presley (Olivia DeJonge), una de las personas más importantes e influyentes en la vida de Elvis.

Español Latino EAC3 5.1 Web & AC3 5.1 BD – Ingles TrueHD 7.1 & Core AC3 5.1 BD

Ficha técnica

Video trailer de la película

Enlaces de descarga

Rip de Bluray

Descargar Elvis (2022) REMUX 1080p Latino




Aportes de DPeliculasHDmega la pass es:dpeliculashdmega.org Aportes de CinemaniaHD la pass es:cinemaniahdd.com
Guardado en : Drama , Historia , Música , Remux

Películas relacionadas

descargar Elvis (2022) REMUX 1080p Latino Full 1080p 1080p gratis, Elvis (2022) REMUX 1080p Latino Full 1080p mega 1 link, Elvis (2022) REMUX 1080p Latino Full 1080p pelicula completa, descargar Elvis (2022) REMUX 1080p Latino Full 1080p gratis en mega.

Elvis (2022) REMUX 1080p Latino pelicula full hd, Elvis (2022) REMUX 1080p Latino mega latino, Elvis (2022) REMUX 1080p Latino 4k latino, Elvis (2022) REMUX 1080p Latino pelicula completa, Elvis (2022) REMUX 1080p Latino descargar gratis, descargar Elvis (2022) REMUX 1080p Latino pelicula latino, Elvis (2022) REMUX 1080p Latino 1 link mega, Elvis (2022) REMUX 1080p Latino 1 link google drive, Elvis (2022) REMUX 1080p Latino hd 1080p latino.
Comentarios 0