×

¿Problemas para descargar con Mozilla, EDGE? Deshabilita la opción "Abrir vinculos en una pestaña nueva" tal como lo muestra ésta imagen.

Elliot: El reno más pequeño (2018) Full HD 1080p Latino

678 vistas

Información de Elliot: El reno más pequeño (2018) Full HD 1080p Latino

Datos de la película

  • Calidad: Full 1080p
  • Audio: Se especifica abajo de la Sinopsis
  • Subtitulos: Español Latino SRT- FORZADOS SRT
  • Resolución: 1920x1080p
  • Formato: MKV
  • Codec: H.264
  • Encoder: CinefiloCool
  • Mediainfo: Clic para Mostrar Datos Ver
  • Elliot - El Reno Mas Pequeño (2018) Full HD 1080p Latino-CMHDD.mkv
    Format                      : Matroska
    Format version              : Version 4
    File size                   : 2.95 GiB
    Duration                    : 1 h 29 min
    Overall bit rate            : 4 709 kb/s
    Movie name                  : CinemaniaHDD.Net
    Encoded date                : UTC 2020-01-30 00:52:57
    Writing application         : mkvmerge v42.0.0 ('Overtime') 64-bit
    Writing library             : libebml v1.3.10 + libmatroska v1.5.2
    Attachments                 : CINEMANIAHD.png

    Video
    ID                          : 1
    Format                      : AVC
    Format/Info                 : Advanced Video Codec
    Format profile              : High@L4.1
    Format settings             : CABAC / 4 Ref Frames
    Format settings, CABAC      : Yes
    Format settings, ReFrames   : 4 frames
    Codec ID                    : V_MPEG4/ISO/AVC
    Duration                    : 1 h 29 min
    Bit rate                    : 2 941 kb/s
    Width                       : 1 920 pixels
    Height                      : 1 080 pixels
    Display aspect ratio        : 16:9
    Frame rate mode             : Constant
    Frame rate                  : 23.976 (24000/1001) FPS
    Color space                 : YUV
    Chroma subsampling          : 4:2:0
    Bit depth                   : 8 bits
    Scan type                   : Progressive
    Bits/(Pixel*Frame)          : 0.059
    Stream size                 : 1.84 GiB (62%)
    Title                       : Full HD1080p [Bluray]
    Writing library             : x264 core 157 r2935 545de2f
    Encoding settings           : cabac=1 / ref=4 / deblock=1:1:1 / analyse=0x3:0x133 / me=tesa / subme=11 / psy=1 / psy_rd=0.40:0.00 / mixed_ref=1 / me_range=24 / chroma_me=1 / trellis=2 / 8x8dct=1 / cqm=0 / deadzone=21,11 / fast_pskip=0 / chroma_qp_offset=-2 / threads=34 / lookahead_threads=8 / sliced_threads=0 / nr=0 / decimate=1 / interlaced=0 / bluray_compat=0 / constrained_intra=0 / bframes=16 / b_pyramid=2 / b_adapt=2 / b_bias=0 / direct=3 / weightb=1 / open_gop=0 / weightp=2 / keyint=240 / keyint_min=24 / scenecut=40 / intra_refresh=0 / rc_lookahead=60 / rc=crf / mbtree=1 / crf=20.0 / qcomp=0.60 / qpmin=0 / qpmax=69 / qpstep=4 / vbv_maxrate=62500 / vbv_bufsize=78125 / crf_max=0.0 / nal_hrd=none / filler=0 / ip_ratio=1.40 / aq=1:0.60
    Default                     : Yes
    Forced                      : Yes
    Color range                 : Limited
    Color primaries             : BT.709
    Transfer characteristics    : BT.709
    Matrix coefficients         : BT.709

    Audio #1
    ID                          : 2
    Format                      : AC-3
    Format/Info                 : Audio Coding 3
    Commercial name             : Dolby Digital
    Codec ID                    : A_AC3
    Duration                    : 1 h 29 min
    Bit rate mode               : Constant
    Bit rate                    : 256 kb/s
    Channel(s)                  : 2 channels
    Channel layout              : L R
    Sampling rate               : 48.0 kHz
    Frame rate                  : 31.250 FPS (1536 SPF)
    Bit depth                   : 16 bits
    Compression mode            : Lossy
    Stream size                 : 164 MiB (5%)
    Title                       : AC3_2.0_Web_Esp
    Language                    : Spanish
    Service kind                : Complete Main
    Default                     : Yes
    Forced                      : Yes

    Audio #2
    ID                          : 3
    Format                      : DTS
    Format/Info                 : Digital Theater Systems
    Codec ID                    : A_DTS
    Duration                    : 1 h 29 min
    Bit rate mode               : Constant
    Bit rate                    : 1 509 kb/s
    Channel(s)                  : 6 channels
    Channel layout              : C L R Ls Rs LFE
    Sampling rate               : 48.0 kHz
    Frame rate                  : 93.750 FPS (512 SPF)
    Bit depth                   : 24 bits
    Compression mode            : Lossy
    Stream size                 : 969 MiB (32%)
    Title                       : DTS_5.1_Bluray_Eng
    Language                    : English
    Default                     : No
    Forced                      : No

    Text #1
    ID                          : 4
    Format                      : UTF-8
    Codec ID                    : S_TEXT/UTF8
    Codec ID/Info               : UTF-8 Plain Text
    Duration                    : 1 h 22 min
    Bit rate                    : 0 b/s
    Count of elements           : 11
    Stream size                 : 307 Bytes (0%)
    Title                       : Sub_Forzados
    Language                    : Spanish
    Default                     : Yes
    Forced                      : Yes

    Text #2
    ID                          : 5
    Format                      : UTF-8
    Codec ID                    : S_TEXT/UTF8
    Codec ID/Info               : UTF-8 Plain Text
    Duration                    : 1 h 24 min
    Bit rate                    : 68 b/s
    Count of elements           : 1219
    Stream size                 : 42.0 KiB (0%)
    Title                       : Sub_Esp
    Language                    : Spanish
    Default                     : No
    Forced                      : No

    Menu
    00:00:00.000                : en:Chapter 01
    00:06:46.072                : en:Chapter 02
    00:13:04.200                : en:Chapter 03
    00:21:03.720                : en:Chapter 04
    00:30:09.933                : en:Chapter 05
    00:37:54.063                : en:Chapter 06
    00:45:58.464                : en:Chapter 07
    00:52:15.924                : en:Chapter 08
    01:02:09.892                : en:Chapter 09
    01:10:29.099                : en:Chapter 10
    01:16:18.699                : en:Chapter 11
    01:21:29.009                : en:Chapter 12

  • Peso: 2.95 GiB

Sinopsis

Descargar Elliot: El reno más pequeño (2018) Full HD 1080p Latino. Cuando Blitzen anuncia que se retira el 21 de diciembre, un caballo en miniatura tendrá tres días para cumplir su sueño de pertenecer al equipo de Santa haciendo las pruebas en el Polo Norte.

Audio Español Latino AC3 2.0 Web-DL – Ingles DTS 5.1 Bluray

Ficha técnica

Video trailer de la película

Enlaces de descarga

Rip de Bluray

Descargar Elliot: El reno más pequeño (2018) Full HD 1080p Latino




Aportes de DPeliculasHDmega la pass es:dpeliculashdmega.org Aportes de CinemaniaHD la pass es:cinemaniahdd.com

Películas relacionadas

descargar Elliot: El reno más pequeño (2018) Full HD 1080p Latino Full 1080p 1080p gratis, Elliot: El reno más pequeño (2018) Full HD 1080p Latino Full 1080p mega 1 link, Elliot: El reno más pequeño (2018) Full HD 1080p Latino Full 1080p pelicula completa, descargar Elliot: El reno más pequeño (2018) Full HD 1080p Latino Full 1080p gratis en mega.

Elliot: El reno más pequeño (2018) Full HD 1080p Latino pelicula full hd, Elliot: El reno más pequeño (2018) Full HD 1080p Latino mega latino, Elliot: El reno más pequeño (2018) Full HD 1080p Latino 4k latino, Elliot: El reno más pequeño (2018) Full HD 1080p Latino pelicula completa, Elliot: El reno más pequeño (2018) Full HD 1080p Latino descargar gratis, descargar Elliot: El reno más pequeño (2018) Full HD 1080p Latino pelicula latino, Elliot: El reno más pequeño (2018) Full HD 1080p Latino 1 link mega, Elliot: El reno más pequeño (2018) Full HD 1080p Latino 1 link google drive, Elliot: El reno más pequeño (2018) Full HD 1080p Latino hd 1080p latino.
Comentarios 0