×

¿Problemas para descargar con Mozilla, EDGE? Deshabilita la opción "Abrir vinculos en una pestaña nueva" tal como lo muestra ésta imagen.

Ellas Hablan (2022) HD 1080p Latino

145 vistas

Información de Ellas Hablan (2022) HD 1080p Latino

Datos de la película

  • Calidad: 1080p
  • Audio: Español Latino AC3 5.1 WEB-DL - Ingles AC3 5.1 BLURAY
  • Subtitulos: Español Latino SRT- FORZADOS SRT
  • Resolución: 1920x804p
  • Formato: MKV
  • Codec: H.264
  • Encoder: Melkor
  • Mediainfo: Clic para Mostrar Datos Ver
  • Ellas Hablan (2022) HD 1080p Latino.mkv
    Format                      : Matroska
    Format version              : Version 4
    File size                   : 3.33 GiB
    Duration                    : 1 h 44 min
    Overall bit rate            : 4 574 kb/s
    Movie name                  : Women Talking (2022) CinemaniaHDD.Net
    Encoded date                : UTC 2023-09-02 16:57:04
    Writing application         : mkvmerge v56.1.0 ('My Friend') 64-bit
    Writing library             : libebml v1.4.2 + libmatroska v1.6.4
    Attachments                 : CINEMANIAHD.png
    Site                        : CinemaniaHDD.Net
    Uploader                    : Melkor

    Video
    ID                          : 1
    Format                      : AVC
    Format/Info                 : Advanced Video Codec
    Format profile              : High@L4.1
    Format settings             : CABAC / 6 Ref Frames
    Format settings, CABAC      : Yes
    Format settings, Reference  : 6 frames
    Codec ID                    : V_MPEG4/ISO/AVC
    Duration                    : 1 h 44 min
    Bit rate                    : 3 500 kb/s
    Width                       : 1 920 pixels
    Height                      : 696 pixels
    Display aspect ratio        : 2.759
    Frame rate mode             : Constant
    Frame rate                  : 23.976 (24000/1001) FPS
    Color space                 : YUV
    Chroma subsampling          : 4:2:0
    Bit depth                   : 8 bits
    Scan type                   : Progressive
    Bits/(Pixel*Frame)          : 0.109
    Stream size                 : 2.53 GiB (76%)
    Title                       : HD1080p [CinemaniaHDD]
    Writing library             : x264 core 163 r3059 b684ebe0
    Encoding settings           : cabac=1 / ref=6 / deblock=1:-1:-1 / analyse=0x3:0x133 / me=umh / subme=9 / psy=1 / psy_rd=1.00:0.15 / mixed_ref=1 / me_range=16 / chroma_me=1 / trellis=2 / 8x8dct=1 / cqm=0 / deadzone=21,11 / fast_pskip=1 / chroma_qp_offset=-3 / threads=22 / lookahead_threads=1 / sliced_threads=0 / nr=0 / decimate=1 / interlaced=0 / bluray_compat=0 / constrained_intra=0 / bframes=3 / b_pyramid=2 / b_adapt=2 / b_bias=0 / direct=3 / weightb=1 / open_gop=0 / weightp=2 / keyint=240 / keyint_min=24 / scenecut=40 / intra_refresh=0 / rc_lookahead=60 / rc=abr / mbtree=1 / bitrate=3500 / ratetol=1.0 / qcomp=0.60 / qpmin=0 / qpmax=69 / qpstep=4 / vbv_maxrate=62500 / vbv_bufsize=78125 / nal_hrd=none / filler=0 / ip_ratio=1.40 / aq=1:1.00
    Default                     : Yes
    Forced                      : Yes
    Color range                 : Limited
    Color primaries             : BT.709
    Transfer characteristics    : BT.709
    Matrix coefficients         : BT.709

    Audio #1
    ID                          : 2
    Format                      : AC-3
    Format/Info                 : Audio Coding 3
    Commercial name             : Dolby Digital
    Codec ID                    : A_AC3
    Duration                    : 1 h 44 min
    Bit rate mode               : Constant
    Bit rate                    : 640 kb/s
    Channel(s)                  : 6 channels
    Channel layout              : L R C LFE Ls Rs
    Sampling rate               : 48.0 kHz
    Frame rate                  : 31.250 FPS (1536 SPF)
    Compression mode            : Lossy
    Delay relative to video     : -5 ms
    Stream size                 : 477 MiB (14%)
    Title                       : Español Latino AC3 [CinemaniaHDD]
    Language                    : Spanish
    Service kind                : Complete Main
    Default                     : Yes
    Forced                      : Yes

    Audio #2
    ID                          : 3
    Format                      : AC-3
    Format/Info                 : Audio Coding 3
    Commercial name             : Dolby Digital
    Codec ID                    : A_AC3
    Duration                    : 1 h 44 min
    Bit rate mode               : Constant
    Bit rate                    : 448 kb/s
    Channel(s)                  : 6 channels
    Channel layout              : L R C LFE Ls Rs
    Sampling rate               : 48.0 kHz
    Frame rate                  : 31.250 FPS (1536 SPF)
    Compression mode            : Lossy
    Delay relative to video     : -5 ms
    Stream size                 : 334 MiB (10%)
    Title                       : Ingles [CinemaniaHDD]
    Language                    : English
    Service kind                : Complete Main
    Default                     : No
    Forced                      : No

    Text #1
    ID                          : 4
    Format                      : UTF-8
    Codec ID                    : S_TEXT/UTF8
    Codec ID/Info               : UTF-8 Plain Text
    Duration                    : 1 h 43 min
    Bit rate                    : 0 b/s
    Count of elements           : 9
    Stream size                 : 247 Bytes (0%)
    Title                       : Forzados-SRT [CinemaniaHDD]
    Language                    : Spanish
    Default                     : Yes
    Forced                      : Yes

    Text #2
    ID                          : 5
    Format                      : UTF-8
    Codec ID                    : S_TEXT/UTF8
    Codec ID/Info               : UTF-8 Plain Text
    Duration                    : 1 h 43 min
    Bit rate                    : 53 b/s
    Count of elements           : 1217
    Stream size                 : 40.0 KiB (0%)
    Title                       : Español-SRT [CinemaniaHDD]
    Language                    : Spanish
    Default                     : No
    Forced                      : No

    Menu
    00:00:00.000                : Chapter 01
    00:07:03.298                : Chapter 02
    00:14:06.220                : Chapter 03
    00:21:26.911                : Chapter 04
    00:26:33.967                : Chapter 05
    00:29:16.546                : Chapter 06
    00:35:25.332                : Chapter 07
    00:42:41.058                : Chapter 08
    00:46:34.333                : Chapter 09
    00:50:22.353                : Chapter 10
    00:54:57.628                : Chapter 11
    00:59:38.325                : Chapter 12
    01:06:47.337                : Chapter 13
    01:11:54.310                : Chapter 14
    01:15:28.315                : Chapter 15
    01:18:52.436                : Chapter 16
    01:25:14.901                : Chapter 17
    01:29:02.128                : Chapter 18
    01:34:32.125                : Chapter 19
    01:37:52.867                : Chapter 20

  • Peso: 3.33 GiB

Sinopsis

Descargar Ellas Hablan (2022) HD 1080p Latino. Un grupo de mujeres en una comunidad menonita aislada lucha por reconciliar su realidad con su fe después de una serie de agresiones sexuales cometidas por los hombres de la colonia..

Ficha técnica

Video trailer de la película

Enlaces de descarga

Rip de Bluray

Descargar Ellas Hablan (2022) HD 1080p Latino




Aportes de DPeliculasHDmega la pass es:dpeliculashdmega.org Aportes de CinemaniaHD la pass es:cinemaniahdd.com Aportes recientes:cinemaniahdd.net
Guardado en : Drama , HD 1080p

Películas relacionadas

descargar Ellas Hablan (2022) HD 1080p Latino 1080p 1080p gratis, Ellas Hablan (2022) HD 1080p Latino 1080p mega 1 link, Ellas Hablan (2022) HD 1080p Latino 1080p pelicula completa, descargar Ellas Hablan (2022) HD 1080p Latino 1080p gratis en mega.

Ellas Hablan (2022) HD 1080p Latino pelicula full hd, Ellas Hablan (2022) HD 1080p Latino mega latino, Ellas Hablan (2022) HD 1080p Latino 4k latino, Ellas Hablan (2022) HD 1080p Latino pelicula completa, Ellas Hablan (2022) HD 1080p Latino descargar gratis, descargar Ellas Hablan (2022) HD 1080p Latino pelicula latino, Ellas Hablan (2022) HD 1080p Latino 1 link mega, Ellas Hablan (2022) HD 1080p Latino 1 link google drive, Ellas Hablan (2022) HD 1080p Latino hd 1080p latino.
Comentarios 0