×

¿Problemas para descargar con Mozilla, EDGE? Deshabilita la opción "Abrir vinculos en una pestaña nueva" tal como lo muestra ésta imagen.

Ella Esta Encantada (2004) REMUX 1080p Latino-CMHDD

74 vistas

Información de Ella Esta Encantada (2004) REMUX 1080p Latino-CMHDD

Datos de la película

  • Calidad: Full 1080p
  • Audio: Español Latino AC3 2.0 WEB-DL - Ingles DTS 5.1 BLURAY
  • Subtitulos: Español Latino PGS - Ingles PGS
  • Resolución: 1920x1080p
  • Formato: MKV
  • Codec: H.264
  • Encoder: CinefiloCool
  • Mediainfo: Clic para Mostrar Datos Ver
  • Ella Esta Encantada (2004) REMUX 1080p Latino-CMHDD.mkv
    Format                      : Matroska
    Format version              : Version 4
    File size                   : 19.1 GiB
    Duration                    : 1 h 36 min
    Overall bit rate mode       : Variable
    Overall bit rate            : 28.3 Mb/s
    Movie name                  : Ella Enchanted (2004) CinemaniaHDD.Net
    Encoded date                : UTC 2022-09-05 04:47:48
    Writing application         : mkvmerge v56.1.0 ('My Friend') 64-bit
    Writing library             : libebml v1.4.2 + libmatroska v1.6.4

    Video
    ID                          : 1
    Format                      : AVC
    Format/Info                 : Advanced Video Codec
    Format profile              : High@L4.1
    Format settings             : CABAC / 4 Ref Frames
    Format settings, CABAC      : Yes
    Format settings, Reference  : 4 frames
    Format settings, GOP        : M=3, N=24
    Codec ID                    : V_MPEG4/ISO/AVC
    Duration                    : 1 h 36 min
    Bit rate mode               : Variable
    Bit rate                    : 23.6 Mb/s
    Maximum bit rate            : 35.0 Mb/s
    Width                       : 1 920 pixels
    Height                      : 1 080 pixels
    Display aspect ratio        : 16:9
    Frame rate mode             : Constant
    Frame rate                  : 23.976 (24000/1001) FPS
    Original frame rate         : 24.000 FPS
    Standard                    : NTSC
    Color space                 : YUV
    Chroma subsampling          : 4:2:0
    Bit depth                   : 8 bits
    Scan type                   : Progressive
    Bits/(Pixel*Frame)          : 0.475
    Stream size                 : 15.9 GiB (84%)
    Title                       : REMUX HD1080p [CinemaniaHDD]
    Default                     : Yes
    Forced                      : Yes
    Color range                 : Limited
    Color primaries             : BT.709
    Transfer characteristics    : BT.709
    Matrix coefficients         : BT.709

    Audio #1
    ID                          : 2
    Format                      : AC-3
    Format/Info                 : Audio Coding 3
    Commercial name             : Dolby Digital
    Codec ID                    : A_AC3
    Duration                    : 1 h 36 min
    Bit rate mode               : Constant
    Bit rate                    : 256 kb/s
    Channel(s)                  : 2 channels
    Channel layout              : L R
    Sampling rate               : 48.0 kHz
    Frame rate                  : 31.250 FPS (1536 SPF)
    Compression mode            : Lossy
    Stream size                 : 177 MiB (1%)
    Title                       : Español Latino [CinemaniaHDD]
    Language                    : Spanish
    Service kind                : Complete Main
    Default                     : Yes
    Forced                      : Yes

    Audio #2
    ID                          : 3
    Format                      : DTS XLL
    Format/Info                 : Digital Theater Systems
    Commercial name             : DTS-HD Master Audio
    Codec ID                    : A_DTS
    Duration                    : 1 h 36 min
    Bit rate mode               : Variable
    Bit rate                    : 4 382 kb/s
    Channel(s)                  : 6 channels
    Channel layout              : C L R Ls Rs LFE
    Sampling rate               : 48.0 kHz
    Frame rate                  : 93.750 FPS (512 SPF)
    Bit depth                   : 24 bits
    Compression mode            : Lossless
    Delay relative to video     : 18 s 644 ms
    Stream size                 : 2.94 GiB (15%)
    Title                       : Ingles [CinemaniaHDD]
    Language                    : English
    Default                     : No
    Forced                      : No

    Text #1
    ID                          : 4
    Format                      : PGS
    Muxing mode                 : zlib
    Codec ID                    : S_HDMV/PGS
    Codec ID/Info               : Picture based subtitle format used on BDs/HD-DVDs
    Duration                    : 1 h 29 min
    Bit rate                    : 47.2 kb/s
    Count of elements           : 2210
    Stream size                 : 30.4 MiB (0%)
    Title                       : Español-PGS [CinemaniaHDD]
    Language                    : Spanish
    Default                     : No
    Forced                      : No

    Text #2
    ID                          : 5
    Format                      : PGS
    Muxing mode                 : zlib
    Codec ID                    : S_HDMV/PGS
    Codec ID/Info               : Picture based subtitle format used on BDs/HD-DVDs
    Duration                    : 1 h 29 min
    Bit rate                    : 51.9 kb/s
    Count of elements           : 3138
    Stream size                 : 33.3 MiB (0%)
    Title                       : Ingles-PGS [CinemaniaHDD]
    Language                    : English
    Default                     : No
    Forced                      : No

    Text #3
    ID                          : 6
    Format                      : UTF-8
    Codec ID                    : S_TEXT/UTF8
    Codec ID/Info               : UTF-8 Plain Text
    Duration                    : 40 min 23 s
    Bit rate                    : 0 b/s
    Count of elements           : 2
    Stream size                 : 37.0 Bytes (0%)
    Title                       : Forzados-SRT [CinemaniaHDD]
    Language                    : Spanish
    Default                     : Yes
    Forced                      : Yes

    Text #4
    ID                          : 7
    Format                      : UTF-8
    Codec ID                    : S_TEXT/UTF8
    Codec ID/Info               : UTF-8 Plain Text
    Duration                    : 1 h 29 min
    Bit rate                    : 63 b/s
    Count of elements           : 1600
    Stream size                 : 41.7 KiB (0%)
    Title                       : Español-SRT [CinemaniaHDD]
    Language                    : Spanish
    Default                     : No
    Forced                      : No

    Menu
    00:00:00.000                : Chapter 1
    00:07:35.455                : Chapter 2
    00:13:10.247                : Chapter 3
    00:20:23.514                : Chapter 4
    00:24:04.985                : Chapter 5
    00:27:56.424                : Chapter 6
    00:33:18.038                : Chapter 7
    00:40:23.796                : Chapter 8
    00:43:39.033                : Chapter 9
    00:47:23.798                : Chapter 10
    00:55:28.157                : Chapter 11
    01:02:08.391                : Chapter 12
    01:08:12.130                : Chapter 13
    01:13:17.976                : Chapter 14
    01:20:56.726                : Chapter 15

  • Peso: 19.1 GiB

Sinopsis

Descargar Ella Esta Encantada (2004) REMUX 1080p Latino-CMHDD. Ella es una joven que vive en un mundo mágico y de fantasía en el que a todos los niños al nacer se les concede un don por parte de una hada superiora. El don de Ella, más que don una maldición, es la obediencia. Como consecuencia de esta circunstancia, Ella no puede negarse a ninguna orden, lo que le traerá más de un problema. En un intento por recuperar el control de su vida, la joven tratará de librarse de la maldición que pesa sobre ella, entrando en un reino lleno de ogros, gigantes y malvadas hermanastras.

Disponible Solo Para VIP!!!

Ficha técnica

Video trailer de la película

Enlaces de descarga

Rip de Bluray

Descargar Ella Esta Encantada (2004) REMUX 1080p Latino-CMHDD


Aportes de DPeliculasHDmega la pass es:dpeliculashdmega.org Aportes de CinemaniaHD la pass es:cinemaniahdd.com
Guardado en : Comedia , Familia , Fantasía , Remux

Películas relacionadas

descargar Ella Esta Encantada (2004) REMUX 1080p Latino-CMHDD Full 1080p 1080p gratis, Ella Esta Encantada (2004) REMUX 1080p Latino-CMHDD Full 1080p mega 1 link, Ella Esta Encantada (2004) REMUX 1080p Latino-CMHDD Full 1080p pelicula completa, descargar Ella Esta Encantada (2004) REMUX 1080p Latino-CMHDD Full 1080p gratis en mega.

Ella Esta Encantada (2004) REMUX 1080p Latino-CMHDD pelicula full hd, Ella Esta Encantada (2004) REMUX 1080p Latino-CMHDD mega latino, Ella Esta Encantada (2004) REMUX 1080p Latino-CMHDD 4k latino, Ella Esta Encantada (2004) REMUX 1080p Latino-CMHDD pelicula completa, Ella Esta Encantada (2004) REMUX 1080p Latino-CMHDD descargar gratis, descargar Ella Esta Encantada (2004) REMUX 1080p Latino-CMHDD pelicula latino, Ella Esta Encantada (2004) REMUX 1080p Latino-CMHDD 1 link mega, Ella Esta Encantada (2004) REMUX 1080p Latino-CMHDD 1 link google drive, Ella Esta Encantada (2004) REMUX 1080p Latino-CMHDD hd 1080p latino.
Comentarios 0