×

¿Problemas para descargar con Mozilla, EDGE? Deshabilita la opción "Abrir vinculos en una pestaña nueva" tal como lo muestra ésta imagen.

Elizabethtown (2005) REMUX 1080p Latino – CMHDD

225 vistas

Información de Elizabethtown (2005) REMUX 1080p Latino – CMHDD

Datos de la película

  • Calidad: Full 1080p
  • Audio: Español Latino AC3 5.1 DVD - Ingles DTS 5.1 BLURAY
  • Subtitulos: Español Latino SRT- FORZADOS SRT
  • Resolución: 1920x1080p
  • Formato: MKV
  • Codec: H.264
  • Encoder: Dracarys
  • Mediainfo: Clic para Mostrar Datos Ver
  • Elizabethtown (2005) REMUX 1080p Latino-CMHDD.mkv
    Format                      : Matroska
    Format version              : Version 4
    File size                   : 34.0 GiB
    Duration                    : 2 h 3 min
    Overall bit rate mode       : Variable
    Overall bit rate            : 39.4 Mb/s
    Movie name                  : Elizabethtown (2005) CinemaniaHDD.Net
    Encoded date                : UTC 2021-04-11 18:18:06
    Writing application         : mkvmerge v51.0.0 ('I Wish') 64-bit
    Writing library             : libebml v1.4.0 + libmatroska v1.6.2
    Cover                       : Yes
    Attachments                 : CINEMANIAHD.png / cover.jpg

    Video
    ID                          : 1
    ID in the original source m : 4113 (0x1011)
    Format                      : AVC
    Format/Info                 : Advanced Video Codec
    Format profile              : High@L4.1
    Format settings             : CABAC / 2 Ref Frames
    Format settings, CABAC      : Yes
    Format settings, Reference  : 2 frames
    Codec ID                    : V_MPEG4/ISO/AVC
    Duration                    : 2 h 3 min
    Bit rate mode               : Variable
    Bit rate                    : 35.4 Mb/s
    Width                       : 1 920 pixels
    Height                      : 1 080 pixels
    Display aspect ratio        : 16:9
    Frame rate mode             : Constant
    Frame rate                  : 23.976 (24000/1001) FPS
    Color space                 : YUV
    Chroma subsampling          : 4:2:0
    Bit depth                   : 8 bits
    Scan type                   : Progressive
    Bits/(Pixel*Frame)          : 0.712
    Stream size                 : 30.6 GiB (90%)
    Title                       : REMUX HD1080p [CinemaniaHDD]
    Default                     : Yes
    Forced                      : No
    Original source medium      : Blu-ray

    Audio #1
    ID                          : 2
    Format                      : AC-3
    Format/Info                 : Audio Coding 3
    Commercial name             : Dolby Digital
    Codec ID                    : A_AC3
    Duration                    : 2 h 3 min
    Bit rate mode               : Constant
    Bit rate                    : 448 kb/s
    Channel(s)                  : 6 channels
    Channel layout              : L R C LFE Ls Rs
    Sampling rate               : 48.0 kHz
    Frame rate                  : 31.250 FPS (1536 SPF)
    Compression mode            : Lossy
    Stream size                 : 396 MiB (1%)
    Title                       : Español Latino [CinemaniaHDD]
    Language                    : Spanish
    Service kind                : Complete Main
    Default                     : Yes
    Forced                      : No

    Audio #2
    ID                          : 3
    ID in the original source m : 4352 (0x1100)
    Format                      : DTS XLL
    Format/Info                 : Digital Theater Systems
    Commercial name             : DTS-HD Master Audio
    Codec ID                    : A_DTS
    Duration                    : 2 h 3 min
    Bit rate mode               : Variable
    Bit rate                    : 3 515 kb/s
    Channel(s)                  : 6 channels
    Channel layout              : C L R Ls Rs LFE
    Sampling rate               : 48.0 kHz
    Frame rate                  : 93.750 FPS (512 SPF)
    Bit depth                   : 24 bits
    Compression mode            : Lossless
    Stream size                 : 3.04 GiB (9%)
    Title                       : Ingles [CinemaniaHDD]
    Language                    : English
    Default                     : No
    Forced                      : No
    Original source medium      : Blu-ray

    Text #1
    ID                          : 4
    Format                      : UTF-8
    Codec ID                    : S_TEXT/UTF8
    Codec ID/Info               : UTF-8 Plain Text
    Duration                    : 1 h 54 min
    Bit rate                    : 1 b/s
    Count of elements           : 25
    Stream size                 : 866 Bytes (0%)
    Title                       : Forzados-SRT [CinemaniaHDD]
    Language                    : Spanish
    Default                     : Yes
    Forced                      : No

    Text #2
    ID                          : 5
    Format                      : UTF-8
    Codec ID                    : S_TEXT/UTF8
    Codec ID/Info               : UTF-8 Plain Text
    Duration                    : 1 h 56 min
    Bit rate                    : 45 b/s
    Count of elements           : 1285
    Stream size                 : 38.9 KiB (0%)
    Title                       : Español-SRT [CinemaniaHDD]
    Language                    : Spanish
    Default                     : No
    Forced                      : No

    Text #3
    ID                          : 6
    ID in the original source m : 4608 (0x1200)
    Format                      : PGS
    Muxing mode                 : zlib
    Codec ID                    : S_HDMV/PGS
    Codec ID/Info               : Picture based subtitle format used on BDs/HD-DVDs
    Duration                    : 1 h 56 min
    Bit rate                    : 32.7 kb/s
    Count of elements           : 2530
    Stream size                 : 27.4 MiB (0%)
    Title                       : Ingles-PGS [CinemaniaHDD]
    Language                    : English
    Default                     : No
    Forced                      : No
    Original source medium      : Blu-ray

    Menu
    00:00:00.000                : en:Chapter 01
    00:04:39.279                : en:Chapter 02
    00:09:33.864                : en:Chapter 03
    00:13:50.830                : en:Chapter 04
    00:21:30.038                : en:Chapter 05
    00:27:03.622                : en:Chapter 06
    00:34:23.686                : en:Chapter 07
    00:41:01.834                : en:Chapter 08
    00:47:23.549                : en:Chapter 09
    00:53:13.982                : en:Chapter 10
    01:00:41.346                : en:Chapter 11
    01:05:21.000                : en:Chapter 12
    01:10:48.702                : en:Chapter 13
    01:13:58.600                : en:Chapter 14
    01:20:04.174                : en:Chapter 15
    01:26:15.753                : en:Chapter 16
    01:29:11.054                : en:Chapter 17
    01:36:44.048                : en:Chapter 18
    01:41:53.107                : en:Chapter 19
    01:50:59.069                : en:Chapter 20
    01:57:28.041                : en:Chapter 21

  • Peso: 34.0 GiB

Sinopsis

Descargar Elizabethtown (2005) REMUX 1080p Latino – CMHDD. Horas depués de su calamitoso debut como diseñador industrial, Drew Baylor se entera de la repentina muerte de su padre y viaja a Elizabethtown, en Kentucky, para asistir al funeral. Durante el vuelo, conoce a Claire, una azafata que le ayudará a superar los momentos difíciles que le esperan y que le demostrará que las cosas más asombrosas suceden cuando uno menos lo espera.

Ficha técnica

Video trailer de la película

Enlaces de descarga

Rip de Bluray

Descargar Elizabethtown (2005) REMUX 1080p Latino – CMHDD


Aportes de DPeliculasHDmega la pass es:dpeliculashdmega.org Aportes de CinemaniaHD la pass es:cinemaniahdd.com
Guardado en : Comedia , Drama , Remux , Romance

Películas relacionadas

descargar Elizabethtown (2005) REMUX 1080p Latino – CMHDD Full 1080p 1080p gratis, Elizabethtown (2005) REMUX 1080p Latino – CMHDD Full 1080p mega 1 link, Elizabethtown (2005) REMUX 1080p Latino – CMHDD Full 1080p pelicula completa, descargar Elizabethtown (2005) REMUX 1080p Latino – CMHDD Full 1080p gratis en mega.

Elizabethtown (2005) REMUX 1080p Latino – CMHDD pelicula full hd, Elizabethtown (2005) REMUX 1080p Latino – CMHDD mega latino, Elizabethtown (2005) REMUX 1080p Latino – CMHDD 4k latino, Elizabethtown (2005) REMUX 1080p Latino – CMHDD pelicula completa, Elizabethtown (2005) REMUX 1080p Latino – CMHDD descargar gratis, descargar Elizabethtown (2005) REMUX 1080p Latino – CMHDD pelicula latino, Elizabethtown (2005) REMUX 1080p Latino – CMHDD 1 link mega, Elizabethtown (2005) REMUX 1080p Latino – CMHDD 1 link google drive, Elizabethtown (2005) REMUX 1080p Latino – CMHDD hd 1080p latino.
Comentarios 0