×

¿Problemas para descargar con Mozilla, EDGE? Deshabilita la opción "Abrir vinculos en una pestaña nueva" tal como lo muestra ésta imagen.

Élite (2020) Temporada 3 NF WEB-DL 1080p Latino

1.322 vistas

Información de Élite (2020) Temporada 3 NF WEB-DL 1080p Latino

Datos de la película

  • Calidad: WEBDL
  • Audio: Se especifica abajo de la Sinopsis
  • Subtitulos: Ingles SRT
  • Resolución: 1920x1080
  • Formato: MKV
  • Codec: H.264
  • Encoder: cinemaniahdd
  • Mediainfo: Clic para Mostrar Datos Ver
  • Elite S03\ Elite S03E08 NF WEB-DL 1080p Latino.mkv
    Format                      : Matroska
    Format version              : Version 4
    File size                   : 2.91 GiB
    Duration                    : 51 min 46 s
    Overall bit rate mode       : Variable
    Overall bit rate            : 8 041 kb/s
    Movie name                  : Elite S03E08 - CinemaniaHDD.Net
    Encoded date                : UTC 2020-03-13 21:03:50
    Writing application         : mkvmerge v42.0.0 ('Overtime') 64-bit
    Writing library             : libebml v1.3.10 + libmatroska v1.5.2

    Video
    ID                          : 1
    Format                      : AVC
    Format/Info                 : Advanced Video Codec
    Format profile              : High@L4
    Format settings             : CABAC / 4 Ref Frames
    Format settings, CABAC      : Yes
    Format settings, ReFrames   : 4 frames
    Codec ID                    : V_MPEG4/ISO/AVC
    Duration                    : 51 min 46 s
    Bit rate mode               : Variable
    Bit rate                    : 6 887 kb/s
    Maximum bit rate            : 20.0 Mb/s
    Width                       : 1 920 pixels
    Height                      : 1 080 pixels
    Display aspect ratio        : 16:9
    Frame rate mode             : Constant
    Frame rate                  : 25.000 FPS
    Color space                 : YUV
    Chroma subsampling          : 4:2:0
    Bit depth                   : 8 bits
    Scan type                   : Progressive
    Bits/(Pixel*Frame)          : 0.133
    Stream size                 : 2.49 GiB (86%)
    Title                       : CinemaniaHDD
    Writing library             : x264 core 148 r2717 0d2410d
    Encoding settings           : cabac=1 / ref=4 / deblock=1:0:0 / analyse=0x3:0x111 / me=umh / subme=10 / psy=1 / psy_rd=1.00:0.00 / mixed_ref=1 / me_range=120 / chroma_me=1 / trellis=2 / 8x8dct=1 / cqm=0 / deadzone=21,11 / fast_pskip=1 / chroma_qp_offset=-2 / threads=6 / lookahead_threads=1 / sliced_threads=0 / nr=0 / decimate=1 / interlaced=0 / bluray_compat=0 / stitchable=1 / constrained_intra=0 / bframes=16 / b_pyramid=2 / b_adapt=2 / b_bias=0 / direct=3 / weightb=1 / open_gop=0 / weightp=2 / keyint=250 / keyint_min=126 / scenecut=0 / intra_refresh=0 / rc_lookahead=250 / rc=crf / mbtree=1 / crf=20.0 / qcomp=0.50 / qpmin=6 / qpmax=51 / qpstep=4 / vbv_maxrate=20000 / vbv_bufsize=25000 / crf_max=0.0 / nal_hrd=vbr / filler=0 / ip_ratio=1.40 / aq=1:0.80
    Default                     : Yes
    Forced                      : No

    Audio #1
    ID                          : 2
    Format                      : AC-3
    Format/Info                 : Audio Coding 3
    Commercial name             : Dolby Digital
    Codec ID                    : A_AC3
    Duration                    : 51 min 46 s
    Bit rate mode               : Constant
    Bit rate                    : 384 kb/s
    Channel(s)                  : 6 channels
    Channel layout              : L R C LFE Ls Rs
    Sampling rate               : 48.0 kHz
    Frame rate                  : 31.250 FPS (1536 SPF)
    Bit depth                   : 16 bits
    Compression mode            : Lossy
    Stream size                 : 142 MiB (5%)
    Title                       : Español latino [CinemaniaHDD]
    Language                    : Spanish
    Service kind                : Complete Main
    Default                     : Yes
    Forced                      : No

    Audio #2
    ID                          : 3
    Format                      : AC-3
    Format/Info                 : Audio Coding 3
    Commercial name             : Dolby Digital
    Codec ID                    : A_AC3
    Duration                    : 51 min 46 s
    Bit rate mode               : Constant
    Bit rate                    : 384 kb/s
    Channel(s)                  : 6 channels
    Channel layout              : L R C LFE Ls Rs
    Sampling rate               : 48.0 kHz
    Frame rate                  : 31.250 FPS (1536 SPF)
    Bit depth                   : 16 bits
    Compression mode            : Lossy
    Stream size                 : 142 MiB (5%)
    Title                       : Inglés [CinemaniaHDD]
    Language                    : English
    Service kind                : Complete Main
    Default                     : No
    Forced                      : No

    Audio #3
    ID                          : 4
    Format                      : AC-3
    Format/Info                 : Audio Coding 3
    Commercial name             : Dolby Digital
    Codec ID                    : A_AC3
    Duration                    : 51 min 46 s
    Bit rate mode               : Constant
    Bit rate                    : 384 kb/s
    Channel(s)                  : 6 channels
    Channel layout              : L R C LFE Ls Rs
    Sampling rate               : 48.0 kHz
    Frame rate                  : 31.250 FPS (1536 SPF)
    Bit depth                   : 16 bits
    Compression mode            : Lossy
    Stream size                 : 142 MiB (5%)
    Title                       : Español Castellano [CinemaniaHDD]
    Language                    : Spanish
    Service kind                : Complete Main
    Default                     : No
    Forced                      : No

    Text
    ID                          : 5
    Format                      : UTF-8
    Codec ID                    : S_TEXT/UTF8
    Codec ID/Info               : UTF-8 Plain Text
    Duration                    : 50 min 39 s
    Bit rate                    : 44 b/s
    Count of elements           : 572
    Stream size                 : 16.4 KiB (0%)
    Title                       : Inglés [CinemaniaHDD]
    Language                    : English
    Default                     : No
    Forced                      : No

     

  • Peso: 2.91 GiB C/U

Sinopsis

Un nuevo año escolar ha comenzado en Las Encinas, trayendo estudiantes nuevos y veteranos. Aunque nada les gustaría más que volver a la normalidad, un acontecimiento volverá a enfrentarlos y cambiará sus vidas para siempre.

Español Latino AC3 5.1 – Castellano AC3 5.1 – Ingles AC3 5.1

Ficha técnica

Video trailer de la película

Enlaces de descarga

Rip de Bluray

Descargar Élite (2020) Temporada 3 NF WEB-DL 1080p Latino




Aportes de DPeliculasHDmega la pass es:dpeliculashdmega.org Aportes de CinemaniaHD la pass es:cinemaniahdd.com
Guardado en : Crimen , Drama , Misterio , Netflix , Series

Películas relacionadas

  • Togo (2022) NF WEB-DL 1080p Latino

    Togo (2022) NF WEB-DL 1080p Latino

    2022
    Togo (2022) NF WEB-DL 1080p Latino

    1h 35m 2022

    Descargar Togo (2022) NF WEB-DL 1080p Latino. Los narcos de poca monta están copando las calles de Montevideo...

    Director: Adrián Caetano

    Género: Crimen

    Actores: Tito Prieto

  • Star Wars: Andor (2022) Temporada 1 WEB-DL 1080p Latino

    Star Wars: Andor (2022) Temporada 1 WEB-DL 1080p Latino

    2022
    Star Wars: Andor (2022) Temporada 1 WEB-DL 1080p Latino

    0h 0m 2022

    Descargar Star Wars: Andor (2022) Temporada 1 WEB-DL 1080p Latino. Serie precuela de 'Star Wars; Rogue...

    Director: Tony Gilroy

    Género: Action & Adventure

    Actores: Stellan Skarsgård

descargar Élite (2020) Temporada 3 NF WEB-DL 1080p Latino WEBDL 1080p gratis, Élite (2020) Temporada 3 NF WEB-DL 1080p Latino WEBDL mega 1 link, Élite (2020) Temporada 3 NF WEB-DL 1080p Latino WEBDL serie completa, descargar Élite (2020) Temporada 3 NF WEB-DL 1080p Latino WEBDL gratis en mega.

Élite (2020) Temporada 3 NF WEB-DL 1080p Latino pelicula full hd, Élite (2020) Temporada 3 NF WEB-DL 1080p Latino mega latino, Élite (2020) Temporada 3 NF WEB-DL 1080p Latino 4k latino, Élite (2020) Temporada 3 NF WEB-DL 1080p Latino pelicula completa, Élite (2020) Temporada 3 NF WEB-DL 1080p Latino descargar gratis, descargar Élite (2020) Temporada 3 NF WEB-DL 1080p Latino pelicula latino, Élite (2020) Temporada 3 NF WEB-DL 1080p Latino 1 link mega, Élite (2020) Temporada 3 NF WEB-DL 1080p Latino 1 link google drive, Élite (2020) Temporada 3 NF WEB-DL 1080p Latino hd 1080p latino.
Comentarios 0