×

¿Problemas para descargar con Mozilla, EDGE? Deshabilita la opción "Abrir vinculos en una pestaña nueva" tal como lo muestra ésta imagen.

Eli (2019) NF WEB-DL 1080p Latino

1.387 vistas

Información de Eli (2019) NF WEB-DL 1080p Latino

Datos de la película

  • Calidad: WEBDL
  • Audio: Español Latino AC3 5.1 Netflix - Ingles AC3 5.1 Netflix
  • Subtitulos: Español Latino SRT- FORZADOS SRT
  • Resolución: 1920x1080
  • Formato: MKV
  • Codec: H.264
  • Encoder: cinemaniahdd
  • Mediainfo: Clic para Mostrar Datos Ver
  • Eli (2019) NF WEB-DL 1080p Latino.mkv
    Format                      : Matroska
    Format version              : Version 4
    File size                   : 4.60 GiB
    Duration                    : 1 h 38 min
    Overall bit rate mode       : Variable
    Overall bit rate            : 6 720 kb/s
    Movie name                  : Eli (2019) - CinemaniaHDD.Net
    Encoded date                : UTC 2019-10-18 09:15:09
    Writing application         : mkvmerge v38.0.0 ('The Silent Type') 64-bit
    Writing library             : libebml v1.3.9 + libmatroska v1.5.2

    Video
    ID                          : 1
    Format                      : AVC
    Format/Info                 : Advanced Video Codec
    Format profile              : High@L4
    Format settings             : CABAC / 4 Ref Frames
    Format settings, CABAC      : Yes
    Format settings, ReFrames   : 4 frames
    Codec ID                    : V_MPEG4/ISO/AVC
    Duration                    : 1 h 38 min
    Bit rate mode               : Variable
    Bit rate                    : 5 950 kb/s
    Maximum bit rate            : 20.0 Mb/s
    Width                       : 1 920 pixels
    Height                      : 1 080 pixels
    Display aspect ratio        : 16:9
    Frame rate mode             : Constant
    Frame rate                  : 23.976 (24000/1001) FPS
    Color space                 : YUV
    Chroma subsampling          : 4:2:0
    Bit depth                   : 8 bits
    Scan type                   : Progressive
    Bits/(Pixel*Frame)          : 0.120
    Stream size                 : 4.08 GiB (89%)
    Title                       : CinemaniaHDD
    Writing library             : x264 core 148 r2715 7e75228
    Encoding settings           : cabac=1 / ref=4 / deblock=1:0:0 / analyse=0x3:0x111 / me=umh / subme=10 / psy=1 / psy_rd=1.00:0.00 / mixed_ref=1 / me_range=120 / chroma_me=1 / trellis=2 / 8x8dct=1 / cqm=0 / deadzone=21,11 / fast_pskip=1 / chroma_qp_offset=-2 / threads=8 / lookahead_threads=2 / sliced_threads=0 / nr=0 / decimate=1 / interlaced=0 / bluray_compat=0 / stitchable=1 / constrained_intra=0 / bframes=16 / b_pyramid=2 / b_adapt=2 / b_bias=0 / direct=3 / weightb=1 / open_gop=0 / weightp=2 / keyint=240 / keyint_min=121 / scenecut=0 / intra_refresh=0 / rc_lookahead=240 / rc=crf / mbtree=1 / crf=16.0 / qcomp=0.50 / qpmin=6 / qpmax=51 / qpstep=4 / vbv_maxrate=20000 / vbv_bufsize=25000 / crf_max=0.0 / nal_hrd=vbr / filler=0 / ip_ratio=1.40 / aq=1:0.80
    Default                     : Yes
    Forced                      : No

    Audio #1
    ID                          : 2
    Format                      : AC-3
    Format/Info                 : Audio Coding 3
    Commercial name             : Dolby Digital
    Codec ID                    : A_AC3
    Duration                    : 1 h 38 min
    Bit rate mode               : Constant
    Bit rate                    : 384 kb/s
    Channel(s)                  : 6 channels
    Channel layout              : L R C LFE Ls Rs
    Sampling rate               : 48.0 kHz
    Frame rate                  : 31.250 FPS (1536 SPF)
    Bit depth                   : 16 bits
    Compression mode            : Lossy
    Stream size                 : 269 MiB (6%)
    Title                       : Español latino [CinemaniaHDD]
    Language                    : Spanish
    Service kind                : Complete Main
    Default                     : Yes
    Forced                      : No

    Audio #2
    ID                          : 3
    Format                      : AC-3
    Format/Info                 : Audio Coding 3
    Commercial name             : Dolby Digital
    Codec ID                    : A_AC3
    Duration                    : 1 h 38 min
    Bit rate mode               : Constant
    Bit rate                    : 384 kb/s
    Channel(s)                  : 6 channels
    Channel layout              : L R C LFE Ls Rs
    Sampling rate               : 48.0 kHz
    Frame rate                  : 31.250 FPS (1536 SPF)
    Bit depth                   : 16 bits
    Compression mode            : Lossy
    Stream size                 : 269 MiB (6%)
    Title                       : Inglés [CinemaniaHDD]
    Language                    : English
    Service kind                : Complete Main
    Default                     : No
    Forced                      : No

    Text #1
    ID                          : 4
    Format                      : UTF-8
    Codec ID                    : S_TEXT/UTF8
    Codec ID/Info               : UTF-8 Plain Text
    Duration                    : 1 h 33 min
    Bit rate                    : 0 b/s
    Count of elements           : 13
    Stream size                 : 201 Bytes (0%)
    Title                       : Forzados [CinemaniaHDD]
    Language                    : Spanish
    Default                     : Yes
    Forced                      : Yes

    Text #2
    ID                          : 5
    Format                      : UTF-8
    Codec ID                    : S_TEXT/UTF8
    Codec ID/Info               : UTF-8 Plain Text
    Duration                    : 1 h 35 min
    Bit rate                    : 33 b/s
    Count of elements           : 995
    Stream size                 : 23.5 KiB (0%)
    Title                       : Español latino [CinemaniaHDD]
    Language                    : Spanish
    Default                     : No
    Forced                      : No

     

  • Peso: 4.60 GiB

Sinopsis

Eli Miller es un niño que padece una enfermedad autoinmune. Como último recurso, se traslada con sus padres a una mansión libre de gérmenes para recibir tratamiento. Durante su estancia, le atormentan visiones terroríficas que otros consideran alucinaciones. Definitivamente, algo siniestro se esconde entre estas paredes.

Ficha técnica

  • Titulo original: Eli
  • Fecha de lanzamiento: 18-10-2019 (United States of America)
  • Director: Ciarán Foy
  • Género: Netflix, Terror

Video trailer de la película

Enlaces de descarga

Rip de Bluray

Descargar Eli (2019) NF WEB-DL 1080p Latino




Aportes de DPeliculasHDmega la pass es:dpeliculashdmega.org Aportes de CinemaniaHD la pass es:cinemaniahdd.com
Guardado en : Netflix , Terror

Películas relacionadas

  • Blonde (2022) NF WEB-DL 1080p Latino

    Blonde (2022) NF WEB-DL 1080p Latino

    2022
    Blonde (2022) NF WEB-DL 1080p Latino

    2h 46m 2022

    Descargar Blonde (2022) NF WEB-DL 1080p Latino. Basada en el bestseller de la cinco veces finalista al...

    Director: Kristin Bree Calabrese

    Género: Drama

    Actores: Xavier Samuel

  • Poltergeist (1982) REMUX 1080p Latino – CMHDD

    Poltergeist (1982) REMUX 1080p Latino – CMHDD

    1982
    Poltergeist (1982) REMUX 1080p Latino – CMHDD

    1h 54m 1982

    Una familia americana de clase media se traslada a vivir e una nueva casa en un aparentemente idílico...

    Director: Tobe Hooper

    Género: Terror

    Actores: Zelda Rubinstein

  • Poltergeist (1982) REMUX 4K Latino – CMHDD

    Poltergeist (1982) REMUX 4K Latino – CMHDD

    1982
    Poltergeist (1982) REMUX 4K Latino – CMHDD

    1h 54m 1982

    Una familia americana de clase media se traslada a vivir e una nueva casa en un aparentemente idílico...

    Director: Tobe Hooper

    Género: Terror

    Actores: Zelda Rubinstein

descargar Eli (2019) NF WEB-DL 1080p Latino WEBDL 1080p gratis, Eli (2019) NF WEB-DL 1080p Latino WEBDL mega 1 link, Eli (2019) NF WEB-DL 1080p Latino WEBDL pelicula completa, descargar Eli (2019) NF WEB-DL 1080p Latino WEBDL gratis en mega.

Eli (2019) NF WEB-DL 1080p Latino pelicula full hd, Eli (2019) NF WEB-DL 1080p Latino mega latino, Eli (2019) NF WEB-DL 1080p Latino 4k latino, Eli (2019) NF WEB-DL 1080p Latino pelicula completa, Eli (2019) NF WEB-DL 1080p Latino descargar gratis, descargar Eli (2019) NF WEB-DL 1080p Latino pelicula latino, Eli (2019) NF WEB-DL 1080p Latino 1 link mega, Eli (2019) NF WEB-DL 1080p Latino 1 link google drive, Eli (2019) NF WEB-DL 1080p Latino hd 1080p latino.
Comentarios 0