×

¿Problemas para descargar con Mozilla, EDGE? Deshabilita la opción "Abrir vinculos en una pestaña nueva" tal como lo muestra ésta imagen.

Elemental (2023) REMUX 4K UHD HDR Latino-CMHDD

121 vistas

Información de Elemental (2023) REMUX 4K UHD HDR Latino-CMHDD

Datos de la película

  • Calidad: 4K HDR
  • Audio: Se especifica abajo de la Sinopsis
  • Subtitulos: Español Latino PGS - Ingles PGS
  • Resolución: 3840x2160p
  • Formato: MKV
  • Codec: HEVC
  • Encoder: CinefiloCool
  • Mediainfo: Clic para Mostrar Datos Ver
  • Elemental.2023.Bluray.REMUX.2160p.UHD.HDR.HEVC.Latino-CC@CMHDD.mkv
    Format                      : Matroska
    Format version              : Version 4
    File size                   : 33.1 GiB
    Duration                    : 1 h 41 min
    Overall bit rate mode       : Variable
    Overall bit rate            : 46.8 Mb/s
    Movie name                  : Elemental (2023) CinemaniaHDD.Net
    Encoded date                : UTC 2023-12-04 04:55:09
    Writing application         : mkvmerge v56.1.0 ('My Friend') 64-bit
    Writing library             : libebml v1.4.2 + libmatroska v1.6.4
    Attachments                 : CINEMANIAHD.png

    Video
    ID                          : 1
    Format                      : HEVC
    Format/Info                 : High Efficiency Video Coding
    Format profile              : Main 10@L5.1@High
    HDR format                  : SMPTE ST 2086, HDR10 compatible
    Codec ID                    : V_MPEGH/ISO/HEVC
    Duration                    : 1 h 41 min
    Bit rate                    : 40.5 Mb/s
    Width                       : 3 840 pixels
    Height                      : 2 160 pixels
    Display aspect ratio        : 16:9
    Frame rate mode             : Constant
    Frame rate                  : 23.976 (24000/1001) FPS
    Color space                 : YUV
    Chroma subsampling          : 4:2:0 (Type 2)
    Bit depth                   : 10 bits
    Bits/(Pixel*Frame)          : 0.204
    Stream size                 : 28.7 GiB (87%)
    Title                       : REMUX 2160p HDR [Bluray]
    Default                     : Yes
    Forced                      : Yes
    Color range                 : Limited
    Color primaries             : BT.2020
    Transfer characteristics    : PQ
    Matrix coefficients         : BT.2020 non-constant
    Mastering display color pri : BT.2020
    Mastering display luminance : min: 0.0000 cd/m2, max: 1000 cd/m2

    Audio #1
    ID                          : 2
    Format                      : E-AC-3
    Format/Info                 : Enhanced AC-3
    Commercial name             : Dolby Digital Plus
    Format profile              : Blu-ray Disc
    Codec ID                    : A_EAC3
    Duration                    : 1 h 41 min
    Bit rate mode               : Constant
    Bit rate                    : 1 024 kb/s
    Channel(s)                  : 8 channels
    Channel layout              : L R C LFE Ls Rs Lb Rb
    Sampling rate               : 48.0 kHz
    Frame rate                  : 31.250 FPS (1536 SPF)
    Compression mode            : Lossy
    Stream size                 : 743 MiB (2%)
    Title                       : Español Latino DDP [CinemaniaHDD]
    Language                    : Spanish
    Service kind                : Complete Main
    Default                     : Yes
    Forced                      : Yes

    Audio #2
    ID                          : 3
    Format                      : MLP FBA 16-ch
    Format/Info                 : Meridian Lossless Packing FBA with 16-channel presentation
    Commercial name             : Dolby TrueHD with Dolby Atmos
    Codec ID                    : A_TRUEHD
    Duration                    : 1 h 41 min
    Bit rate mode               : Variable
    Bit rate                    : 3 888 kb/s
    Maximum bit rate            : 5 475 kb/s
    Channel(s)                  : 8 channels
    Channel layout              : L R C LFE Ls Rs Lb Rb
    Sampling rate               : 48.0 kHz
    Frame rate                  : 1 200.000 FPS (40 SPF)
    Compression mode            : Lossless
    Stream size                 : 2.76 GiB (8%)
    Title                       : Ingles [CinemaniaHDD]
    Language                    : English
    Default                     : No
    Forced                      : No
    Number of dynamic objects   : 13
    Bed channel count           : 1 channel
    Bed channel configuration   : LFE

    Audio #3
    ID                          : 4
    Format                      : AC-3
    Format/Info                 : Audio Coding 3
    Commercial name             : Dolby Digital
    Codec ID                    : A_AC3
    Duration                    : 1 h 41 min
    Bit rate mode               : Constant
    Bit rate                    : 576 kb/s
    Channel(s)                  : 6 channels
    Channel layout              : L R C LFE Ls Rs
    Sampling rate               : 48.0 kHz
    Frame rate                  : 31.250 FPS (1536 SPF)
    Compression mode            : Lossy
    Stream size                 : 418 MiB (1%)
    Title                       : Español Latino AC3 [CinemaniaHDD]
    Language                    : Spanish
    Service kind                : Complete Main
    Default                     : No
    Forced                      : No

    Audio #4
    ID                          : 5
    Format                      : AC-3
    Format/Info                 : Audio Coding 3
    Commercial name             : Dolby Digital
    Codec ID                    : A_AC3
    Duration                    : 1 h 41 min
    Bit rate mode               : Constant
    Bit rate                    : 640 kb/s
    Channel(s)                  : 6 channels
    Channel layout              : L R C LFE Ls Rs
    Sampling rate               : 48.0 kHz
    Frame rate                  : 31.250 FPS (1536 SPF)
    Compression mode            : Lossy
    Stream size                 : 464 MiB (1%)
    Title                       : Ingles AC3 [CinemaniaHDD]
    Language                    : English
    Service kind                : Complete Main
    Default                     : No
    Forced                      : No

    Text #1
    ID                          : 6
    Format                      : PGS
    Muxing mode                 : zlib
    Codec ID                    : S_HDMV/PGS
    Codec ID/Info               : Picture based subtitle format used on BDs/HD-DVDs
    Duration                    : 1 h 40 min
    Bit rate                    : 33.7 kb/s
    Count of elements           : 2556
    Stream size                 : 24.2 MiB (0%)
    Title                       : Sub_Esp [PGS]
    Language                    : Spanish
    Default                     : No
    Forced                      : No

    Text #2
    ID                          : 7
    Format                      : PGS
    Muxing mode                 : zlib
    Codec ID                    : S_HDMV/PGS
    Codec ID/Info               : Picture based subtitle format used on BDs/HD-DVDs
    Duration                    : 1 h 40 min
    Bit rate                    : 51.3 kb/s
    Count of elements           : 3906
    Stream size                 : 36.8 MiB (0%)
    Title                       : Sub_Eng [PGS]
    Language                    : English
    Default                     : No
    Forced                      : No

    Text #3
    ID                          : 8
    Format                      : UTF-8
    Codec ID                    : S_TEXT/UTF8
    Codec ID/Info               : UTF-8 Plain Text
    Duration                    : 1 h 25 min
    Bit rate                    : 1 b/s
    Count of elements           : 46
    Stream size                 : 921 Bytes (0%)
    Title                       : Sub_Forzados
    Language                    : Spanish
    Default                     : Yes
    Forced                      : Yes

    Text #4
    ID                          : 9
    Format                      : UTF-8
    Codec ID                    : S_TEXT/UTF8
    Codec ID/Info               : UTF-8 Plain Text
    Duration                    : 1 h 32 min
    Bit rate                    : 53 b/s
    Count of elements           : 1270
    Stream size                 : 36.2 KiB (0%)
    Title                       : Sub_Esp
    Language                    : Spanish
    Default                     : No
    Forced                      : No

    Menu
    00:00:00.000                : :Chapter 01
    00:08:16.162                : :Chapter 02
    00:11:11.170                : :Chapter 03
    00:14:24.572                : :Chapter 04
    00:18:14.384                : :Chapter 05
    00:21:24.741                : :Chapter 06
    00:22:54.915                : :Chapter 07
    00:25:24.230                : :Chapter 08
    00:26:11.194                : :Chapter 09
    00:31:29.220                : :Chapter 10
    00:32:33.367                : :Chapter 11
    00:35:54.235                : :Chapter 12
    00:38:32.017                : :Chapter 13
    00:42:43.185                : :Chapter 14
    00:47:12.120                : :Chapter 15
    00:51:35.633                : :Chapter 16
    00:58:51.527                : :Chapter 17
    01:02:46.261                : :Chapter 18
    01:05:08.570                : :Chapter 19
    01:09:46.014                : :Chapter 20
    01:13:47.589                : :Chapter 21
    01:18:00.591                : :Chapter 22
    01:19:22.256                : :Chapter 23
    01:24:23.265                : :Chapter 24
    01:28:28.510                : :Chapter 25
    01:31:37.824                : :Chapter 26
    01:33:51.875                : :Chapter 27
    01:41:27.580                : :Chapter 28

  • Peso: 33.1 GiB

Sinopsis

Descargar Elemental (2023) REMUX 4K UHD HDR Latino-CMHDD. En una ciudad donde los residentes del fuego, el agua, la tierra y el aire viven juntos, una joven apasionada y un chico que se deja llevar por la corriente descubrirán algo elemental: cuánto tienen en común.

Audio Español Latino EAC3 7.1 + AC3 5.1 Bluray – Ingles TrueHD 7.1 + AC3 5.1 Bluray

Nota: Textos En Español!!!

Ficha técnica

Video trailer de la película

Enlaces de descarga

Rip de Bluray

Descargar Elemental (2023) REMUX 4K UHD HDR Latino-CMHDD


Aportes de DPeliculasHDmega la pass es:dpeliculashdmega.org Aportes de CinemaniaHD la pass es:cinemaniahdd.com Aportes recientes:cinemaniahdd.net

Películas relacionadas

descargar Elemental (2023) REMUX 4K UHD HDR Latino-CMHDD 4K HDR 1080p gratis, Elemental (2023) REMUX 4K UHD HDR Latino-CMHDD 4K HDR mega 1 link, Elemental (2023) REMUX 4K UHD HDR Latino-CMHDD 4K HDR pelicula completa, descargar Elemental (2023) REMUX 4K UHD HDR Latino-CMHDD 4K HDR gratis en mega.

Elemental (2023) REMUX 4K UHD HDR Latino-CMHDD pelicula full hd, Elemental (2023) REMUX 4K UHD HDR Latino-CMHDD mega latino, Elemental (2023) REMUX 4K UHD HDR Latino-CMHDD 4k latino, Elemental (2023) REMUX 4K UHD HDR Latino-CMHDD pelicula completa, Elemental (2023) REMUX 4K UHD HDR Latino-CMHDD descargar gratis, descargar Elemental (2023) REMUX 4K UHD HDR Latino-CMHDD pelicula latino, Elemental (2023) REMUX 4K UHD HDR Latino-CMHDD 1 link mega, Elemental (2023) REMUX 4K UHD HDR Latino-CMHDD 1 link google drive, Elemental (2023) REMUX 4K UHD HDR Latino-CMHDD hd 1080p latino.
Comentarios 0