×

¿Problemas para descargar con Mozilla, EDGE? Deshabilita la opción "Abrir vinculos en una pestaña nueva" tal como lo muestra ésta imagen.

El Zorro Y El Sabueso (1981) REMUX 1080p Latino – CMHDD

284 vistas

Información de El Zorro Y El Sabueso (1981) REMUX 1080p Latino – CMHDD

Datos de la película

  • Calidad: Full 1080p
  • Audio: Español Latino AC3 5.1 BLURAY - Ingles DTS 5.1 BLURAY
  • Subtitulos: Español Latino SRT
  • Resolución: 1920x1080p
  • Formato: MKV
  • Codec: H.264
  • Encoder: Dracarys
  • Mediainfo: Clic para Mostrar Datos Ver
  • Format                      : Matroska
    Format version              : Version 4
    File size                   : 21.2 GiB
    Duration                    : 1 h 22 min
    Overall bit rate mode       : Variable
    Overall bit rate            : 36.7 Mb/s
    Movie name                  : El Zorro Y El Sabueso (1981) REMUX 1080p Latino - CMHDD
    Encoded date                : UTC 2020-08-10 01:34:45
    Writing application         : mkvmerge v46.0.0 ('No Deeper Escape') 64-bit
    Writing library             : libebml v1.3.10 + libmatroska v1.5.2

    Video
    ID                          : 1
    Format                      : AVC
    Format/Info                 : Advanced Video Codec
    Format profile              : High@L4.1
    Format settings             : CABAC / 4 Ref Frames
    Format settings, CABAC      : Yes
    Format settings, Reference  : 4 frames
    Codec ID                    : V_MPEG4/ISO/AVC
    Duration                    : 1 h 22 min
    Bit rate mode               : Variable
    Bit rate                    : 32.6 Mb/s
    Maximum bit rate            : 38.0 Mb/s
    Width                       : 1 920 pixels
    Height                      : 1 080 pixels
    Display aspect ratio        : 16:9
    Frame rate mode             : Constant
    Frame rate                  : 23.976 (24000/1001) FPS
    Color space                 : YUV
    Chroma subsampling          : 4:2:0
    Bit depth                   : 8 bits
    Scan type                   : Progressive
    Bits/(Pixel*Frame)          : 0.656
    Stream size                 : 18.9 GiB (89%)
    Default                     : Yes
    Forced                      : No

    Audio #1
    ID                          : 2
    Format                      : AC-3
    Format/Info                 : Audio Coding 3
    Commercial name             : Dolby Digital
    Codec ID                    : A_AC3
    Duration                    : 1 h 22 min
    Bit rate mode               : Constant
    Bit rate                    : 640 kb/s
    Channel(s)                  : 6 channels
    Channel layout              : L R C LFE Ls Rs
    Sampling rate               : 48.0 kHz
    Frame rate                  : 31.250 FPS (1536 SPF)
    Compression mode            : Lossy
    Stream size                 : 380 MiB (2%)
    Language                    : Spanish
    Service kind                : Complete Main
    Default                     : Yes
    Forced                      : No

    Audio #2
    ID                          : 3
    Format                      : DTS XLL
    Format/Info                 : Digital Theater Systems
    Commercial name             : DTS-HD Master Audio
    Codec ID                    : A_DTS
    Duration                    : 1 h 22 min
    Bit rate mode               : Variable
    Bit rate                    : 3 390 kb/s
    Channel(s)                  : 6 channels
    Channel layout              : C L R Ls Rs LFE
    Sampling rate               : 48.0 kHz
    Frame rate                  : 93.750 FPS (512 SPF)
    Bit depth                   : 24 bits
    Compression mode            : Lossless
    Stream size                 : 1.96 GiB (9%)
    Language                    : English
    Default                     : No
    Forced                      : No

    Text #1
    ID                          : 4
    Format                      : UTF-8
    Codec ID                    : S_TEXT/UTF8
    Codec ID/Info               : UTF-8 Plain Text
    Duration                    : 1 h 22 min
    Bit rate                    : 29 b/s
    Count of elements           : 689
    Stream size                 : 17.5 KiB (0%)
    Language                    : Spanish
    Default                     : No
    Forced                      : No

    Text #2
    ID                          : 5
    Format                      : PGS
    Muxing mode                 : zlib
    Codec ID                    : S_HDMV/PGS
    Codec ID/Info               : Picture based subtitle format used on BDs/HD-DVDs
    Duration                    : 1 h 22 min
    Bit rate                    : 18.4 kb/s
    Count of elements           : 1382
    Stream size                 : 10.8 MiB (0%)
    Language                    : Spanish
    Default                     : No
    Forced                      : No

    Menu
    00:00:00.000                : en:Opening Credits
    00:04:32.563                : en:Orphaned
    00:07:46.591                : en:Widow Tweed Adopts Tod
    00:10:02.560                : en:A Surprise for Chief
    00:11:32.400                : en:Mischief in the Barn
    00:17:46.106                : en:Tod and Copper Meet
    00:18:51.046                : en:"The Best of Friends"
    00:23:06.343                : en:Tod Gets Into Trouble
    00:27:44.287                : en:Cooped Up
    00:30:40.755                : en:"Lack of Education"
    00:37:55.856                : en:The Next Spring
    00:43:20.222                : en:A Difficult Reunion
    00:48:16.310                : en:The Aftermath
    00:50:46.752                : en:"Goodbye May Seem Forever"
    00:57:51.050                : en:Big Mama Comes Looking for Tod
    01:01:28.685                : en:Tod Meets Vixey
    01:05:01.272                : en:"Appreciate the Lady"
    01:08:27.853                : en:The Hunter Seeks Revenge
    01:13:56.390                : en:An Unexpected Turn of Events
    01:17:05.871                : en:Copper Saves Tod

  • Peso: 21.2 GiB

Sinopsis

La aventura y la diversión de este clásico de la Disney comienzan cuando una adorable viuda adopta un precioso cachorro de zorro llamado Tod. El travieso zorro pronto se encuentra con Toby, un adorable cachorro de perro de caza. Así se hace los dos inseparables amigos… sin saber que por su naturaleza deberían ser enemigos. Bajo la mirada vigilante de Mamá Búho, Tod y Toby juegan y se divierten en el bosque, inconscientes de que en el futuro tendrán que enfrentarse y poner su amistad a prueba.

Ficha técnica

Video trailer de la película

Enlaces de descarga

Rip de Bluray

Descargar El Zorro Y El Sabueso (1981) REMUX 1080p Latino – CMHDD




Aportes de DPeliculasHDmega la pass es:dpeliculashdmega.org Aportes de CinemaniaHD la pass es:cinemaniahdd.com
Guardado en : Animación , Aventura , Drama , Familia

Películas relacionadas

descargar El Zorro Y El Sabueso (1981) REMUX 1080p Latino – CMHDD Full 1080p 1080p gratis, El Zorro Y El Sabueso (1981) REMUX 1080p Latino – CMHDD Full 1080p mega 1 link, El Zorro Y El Sabueso (1981) REMUX 1080p Latino – CMHDD Full 1080p pelicula completa, descargar El Zorro Y El Sabueso (1981) REMUX 1080p Latino – CMHDD Full 1080p gratis en mega.

El Zorro Y El Sabueso (1981) REMUX 1080p Latino – CMHDD pelicula full hd, El Zorro Y El Sabueso (1981) REMUX 1080p Latino – CMHDD mega latino, El Zorro Y El Sabueso (1981) REMUX 1080p Latino – CMHDD 4k latino, El Zorro Y El Sabueso (1981) REMUX 1080p Latino – CMHDD pelicula completa, El Zorro Y El Sabueso (1981) REMUX 1080p Latino – CMHDD descargar gratis, descargar El Zorro Y El Sabueso (1981) REMUX 1080p Latino – CMHDD pelicula latino, El Zorro Y El Sabueso (1981) REMUX 1080p Latino – CMHDD 1 link mega, El Zorro Y El Sabueso (1981) REMUX 1080p Latino – CMHDD 1 link google drive, El Zorro Y El Sabueso (1981) REMUX 1080p Latino – CMHDD hd 1080p latino.
Comentarios 7
  • Gelonavarrete - 13 agosto, 2020

    No se puede acceder a los enlaces publico amigo envia directamente a vip

    • Dracarys - 13 agosto, 2020

      arreglado

  • laws - 13 agosto, 2020

    Muchas gracias por el aporte

  • laws - 13 agosto, 2020

    hola, tengo un problema al descargar desde GD. Pasa que al llegar a los 15gb de descarga, me tira error de red. ¿podrian subir una segunda opcion de descarga de GD pero que sea una copia del archivo original? Segun tengo entendido, se puede descargar un archivo pesado haciendo una copia del mismo.
    Muchas gracias por el aporte.

    • Dracarys - 13 agosto, 2020

      tu tienes que hacer la copia de archivo. no saco nada con subir a otra cuenta, te pasaría li mismo

  • RogRagnarok - 13 agosto, 2020

    hola, disculpen el paste público lleva para iniciar sesión en el paste privado.

    • Dracarys - 13 agosto, 2020

      arreglado