×

¿Problemas para descargar con Mozilla, EDGE? Deshabilita la opción "Abrir vinculos en una pestaña nueva" tal como lo muestra ésta imagen.

El Zorro Y El Sabueso (1981) HD 1080p Latino – CMHDD

357 vistas

Información de El Zorro Y El Sabueso (1981) HD 1080p Latino – CMHDD

Datos de la película

  • Calidad: 1080p
  • Audio: Español Latino AC3 5.1 BLURAY - Ingles AC3 5.1 BLURAY
  • Subtitulos: Español Latino SRT
  • Resolución: 1804x1080p
  • Formato: MKV
  • Codec: H.264
  • Encoder: Dracarys
  • Mediainfo: Clic para Mostrar Datos Ver
  • Format                      : Matroska
    Format version              : Version 4
    File size                   : 2.76 GiB
    Duration                    : 1 h 22 min
    Overall bit rate            : 4 768 kb/s
    Movie name                  : El Zorro Y El Sabueso (1981) HD 1080p Latino - CMHDD
    Encoded date                : UTC 2020-08-10 01:41:49
    Writing application         : mkvmerge v46.0.0 ('No Deeper Escape') 64-bit
    Writing library             : libebml v1.3.10 + libmatroska v1.5.2

    Video
    ID                          : 1
    Format                      : AVC
    Format/Info                 : Advanced Video Codec
    Format profile              : High@L4.1
    Format settings             : CABAC / 4 Ref Frames
    Format settings, CABAC      : Yes
    Format settings, Reference  : 4 frames
    Codec ID                    : V_MPEG4/ISO/AVC
    Duration                    : 1 h 22 min
    Bit rate                    : 3 500 kb/s
    Width                       : 1 804 pixels
    Height                      : 1 080 pixels
    Display aspect ratio        : 5:3
    Frame rate mode             : Constant
    Frame rate                  : 23.976 (24000/1001) FPS
    Color space                 : YUV
    Chroma subsampling          : 4:2:0
    Bit depth                   : 8 bits
    Scan type                   : Progressive
    Bits/(Pixel*Frame)          : 0.075
    Stream size                 : 2.02 GiB (73%)
    Writing library             : x264 core 157 r2935 545de2f
    Encoding settings           : cabac=1 / ref=4 / deblock=1:0:0 / analyse=0x3:0x113 / me=hex / subme=8 / psy=1 / psy_rd=1.00:0.00 / mixed_ref=1 / me_range=16 / chroma_me=1 / trellis=2 / 8x8dct=1 / cqm=0 / deadzone=21,11 / fast_pskip=1 / chroma_qp_offset=-2 / threads=24 / lookahead_threads=4 / sliced_threads=0 / nr=0 / decimate=1 / interlaced=0 / bluray_compat=0 / constrained_intra=0 / bframes=3 / b_pyramid=2 / b_adapt=1 / b_bias=0 / direct=3 / weightb=1 / open_gop=0 / weightp=2 / keyint=240 / keyint_min=24 / scenecut=40 / intra_refresh=0 / rc_lookahead=50 / rc=abr / mbtree=1 / bitrate=3500 / ratetol=1.0 / qcomp=0.60 / qpmin=0 / qpmax=69 / qpstep=4 / vbv_maxrate=62500 / vbv_bufsize=78125 / nal_hrd=none / filler=0 / ip_ratio=1.40 / aq=1:1.00
    Default                     : Yes
    Forced                      : No
    Color range                 : Limited
    Color primaries             : BT.709
    Transfer characteristics    : BT.709
    Matrix coefficients         : BT.709

    Audio #1
    ID                          : 2
    Format                      : AC-3
    Format/Info                 : Audio Coding 3
    Commercial name             : Dolby Digital
    Codec ID                    : A_AC3
    Duration                    : 1 h 22 min
    Bit rate mode               : Constant
    Bit rate                    : 640 kb/s
    Channel(s)                  : 6 channels
    Channel layout              : L R C LFE Ls Rs
    Sampling rate               : 48.0 kHz
    Frame rate                  : 31.250 FPS (1536 SPF)
    Compression mode            : Lossy
    Delay relative to video     : -5 ms
    Stream size                 : 380 MiB (13%)
    Language                    : Spanish
    Service kind                : Complete Main
    Default                     : Yes
    Forced                      : No

    Audio #2
    ID                          : 3
    Format                      : AC-3
    Format/Info                 : Audio Coding 3
    Commercial name             : Dolby Digital
    Codec ID                    : A_AC3
    Duration                    : 1 h 22 min
    Bit rate mode               : Constant
    Bit rate                    : 640 kb/s
    Channel(s)                  : 6 channels
    Channel layout              : L R C LFE Ls Rs
    Sampling rate               : 48.0 kHz
    Frame rate                  : 31.250 FPS (1536 SPF)
    Compression mode            : Lossy
    Delay relative to video     : -5 ms
    Stream size                 : 380 MiB (13%)
    Language                    : English
    Service kind                : Complete Main
    Default                     : No
    Forced                      : No

    Text
    ID                          : 4
    Format                      : UTF-8
    Codec ID                    : S_TEXT/UTF8
    Codec ID/Info               : UTF-8 Plain Text
    Duration                    : 1 h 22 min
    Bit rate                    : 29 b/s
    Count of elements           : 689
    Stream size                 : 17.5 KiB (0%)
    Language                    : Spanish
    Default                     : No
    Forced                      : No

    Menu
    00:00:00.000                : :Opening Credits
    00:04:32.647                : :Orphaned
    00:07:46.633                : :Widow Tweed Adopts Tod
    00:10:02.644                : :A Surprise for Chief
    00:11:32.483                : :Mischief in the Barn
    00:17:46.107                : :Tod and Copper Meet
    00:18:51.130                : :"The Best of Friends"
    00:23:06.427                : :Tod Gets Into Trouble
    00:27:44.288                : :Cooped Up
    00:30:40.756                : :"Lack of Education"
    00:37:55.857                : :The Next Spring
    00:43:20.223                : :A Difficult Reunion
    00:48:16.394                : :The Aftermath
    00:50:46.752                : :"Goodbye May Seem Forever"
    00:57:51.093                : :Big Mama Comes Looking for Tod
    01:01:28.727                : :Tod Meets Vixey
    01:05:01.314                : :"Appreciate the Lady"
    01:08:27.854                : :The Hunter Seeks Revenge
    01:13:56.432                : :An Unexpected Turn of Events
    01:17:05.955                : :Copper Saves Tod

  • Peso: 2.76 GiB

Sinopsis

La aventura y la diversión de este clásico de la Disney comienzan cuando una adorable viuda adopta un precioso cachorro de zorro llamado Tod. El travieso zorro pronto se encuentra con Toby, un adorable cachorro de perro de caza. Así se hace los dos inseparables amigos… sin saber que por su naturaleza deberían ser enemigos. Bajo la mirada vigilante de Mamá Búho, Tod y Toby juegan y se divierten en el bosque, inconscientes de que en el futuro tendrán que enfrentarse y poner su amistad a prueba.

Ficha técnica

Video trailer de la película

Enlaces de descarga

Rip de Bluray

Descargar El Zorro Y El Sabueso (1981) HD 1080p Latino – CMHDD




Aportes de DPeliculasHDmega la pass es:dpeliculashdmega.org Aportes de CinemaniaHD la pass es:cinemaniahdd.com
Guardado en : Animación , Aventura , Drama , Familia , HD 1080p

Películas relacionadas

descargar El Zorro Y El Sabueso (1981) HD 1080p Latino – CMHDD 1080p 1080p gratis, El Zorro Y El Sabueso (1981) HD 1080p Latino – CMHDD 1080p mega 1 link, El Zorro Y El Sabueso (1981) HD 1080p Latino – CMHDD 1080p pelicula completa, descargar El Zorro Y El Sabueso (1981) HD 1080p Latino – CMHDD 1080p gratis en mega.

El Zorro Y El Sabueso (1981) HD 1080p Latino – CMHDD pelicula full hd, El Zorro Y El Sabueso (1981) HD 1080p Latino – CMHDD mega latino, El Zorro Y El Sabueso (1981) HD 1080p Latino – CMHDD 4k latino, El Zorro Y El Sabueso (1981) HD 1080p Latino – CMHDD pelicula completa, El Zorro Y El Sabueso (1981) HD 1080p Latino – CMHDD descargar gratis, descargar El Zorro Y El Sabueso (1981) HD 1080p Latino – CMHDD pelicula latino, El Zorro Y El Sabueso (1981) HD 1080p Latino – CMHDD 1 link mega, El Zorro Y El Sabueso (1981) HD 1080p Latino – CMHDD 1 link google drive, El Zorro Y El Sabueso (1981) HD 1080p Latino – CMHDD hd 1080p latino.
Comentarios 0