El Zorro Y El Sabueso (1981) Full HD 1080p Latino – CMHDD

83 vistas
1 estrella2 estrellas3 estrellas4 estrellas5 estrellas (Ninguna valoración todavía)
Cargando...

Información de El Zorro Y El Sabueso (1981) Full HD 1080p Latino – CMHDD

Datos de la película

  • Calidad: Full 1080p
  • Audio: Español Latino AC3 5.1 BLURAY - Ingles DTS 5.1 BLURAY
  • Subtitulos: Español Latino SRT
  • Resolución: 1920x1080p
  • Formato: MKV
  • Codec: H.264
  • Encoder: Dracarys
  • Mediainfo: Clic para Mostrar Datos Ver
  • Format                      : Matroska
    Format version              : Version 4
    File size                   : 8.59 GiB
    Duration                    : 1 h 22 min
    Overall bit rate mode       : Variable
    Overall bit rate            : 14.8 Mb/s
    Movie name                  : El Zorro Y El Sabueso (1981) Full HD 1080p Latino - CMHDD
    Encoded date                : UTC 2020-08-10 01:41:03
    Writing application         : mkvmerge v46.0.0 ('No Deeper Escape') 64-bit
    Writing library             : libebml v1.3.10 + libmatroska v1.5.2

    Video
    ID                          : 1
    Format                      : AVC
    Format/Info                 : Advanced Video Codec
    Format profile              : High@L4.1
    Format settings             : CABAC / 4 Ref Frames
    Format settings, CABAC      : Yes
    Format settings, Reference  : 4 frames
    Codec ID                    : V_MPEG4/ISO/AVC
    Duration                    : 1 h 22 min
    Bit rate                    : 10.8 Mb/s
    Width                       : 1 920 pixels
    Height                      : 1 080 pixels
    Display aspect ratio        : 16:9
    Frame rate mode             : Constant
    Frame rate                  : 23.976 (24000/1001) FPS
    Color space                 : YUV
    Chroma subsampling          : 4:2:0
    Bit depth                   : 8 bits
    Scan type                   : Progressive
    Bits/(Pixel*Frame)          : 0.217
    Stream size                 : 6.25 GiB (73%)
    Writing library             : x264 core 157 r2935 545de2f
    Encoding settings           : cabac=1 / ref=4 / deblock=1:0:0 / analyse=0x3:0x133 / me=tesa / subme=11 / psy=1 / psy_rd=1.00:0.00 / mixed_ref=1 / me_range=24 / chroma_me=1 / trellis=2 / 8x8dct=1 / cqm=0 / deadzone=21,11 / fast_pskip=0 / chroma_qp_offset=-2 / threads=24 / lookahead_threads=6 / sliced_threads=0 / nr=0 / decimate=1 / interlaced=0 / bluray_compat=0 / constrained_intra=0 / bframes=16 / b_pyramid=2 / b_adapt=2 / b_bias=0 / direct=3 / weightb=1 / open_gop=0 / weightp=2 / keyint=240 / keyint_min=24 / scenecut=40 / intra_refresh=0 / rc_lookahead=60 / rc=crf / mbtree=1 / crf=20.0 / qcomp=0.60 / qpmin=0 / qpmax=69 / qpstep=4 / vbv_maxrate=62500 / vbv_bufsize=78125 / crf_max=0.0 / nal_hrd=none / filler=0 / ip_ratio=1.40 / aq=1:1.00
    Default                     : Yes
    Forced                      : No
    Color range                 : Limited
    Color primaries             : BT.709
    Transfer characteristics    : BT.709
    Matrix coefficients         : BT.709

    Audio #1
    ID                          : 2
    Format                      : AC-3
    Format/Info                 : Audio Coding 3
    Commercial name             : Dolby Digital
    Codec ID                    : A_AC3
    Duration                    : 1 h 22 min
    Bit rate mode               : Constant
    Bit rate                    : 640 kb/s
    Channel(s)                  : 6 channels
    Channel layout              : L R C LFE Ls Rs
    Sampling rate               : 48.0 kHz
    Frame rate                  : 31.250 FPS (1536 SPF)
    Compression mode            : Lossy
    Stream size                 : 380 MiB (4%)
    Language                    : Spanish
    Service kind                : Complete Main
    Default                     : Yes
    Forced                      : No

    Audio #2
    ID                          : 3
    Format                      : DTS XLL
    Format/Info                 : Digital Theater Systems
    Commercial name             : DTS-HD Master Audio
    Codec ID                    : A_DTS
    Duration                    : 1 h 22 min
    Bit rate mode               : Variable
    Bit rate                    : 3 390 kb/s
    Channel(s)                  : 6 channels
    Channel layout              : C L R Ls Rs LFE
    Sampling rate               : 48.0 kHz
    Frame rate                  : 93.750 FPS (512 SPF)
    Bit depth                   : 24 bits
    Compression mode            : Lossless
    Stream size                 : 1.96 GiB (23%)
    Language                    : English
    Default                     : No
    Forced                      : No

    Text #1
    ID                          : 4
    Format                      : UTF-8
    Codec ID                    : S_TEXT/UTF8
    Codec ID/Info               : UTF-8 Plain Text
    Duration                    : 1 h 22 min
    Bit rate                    : 29 b/s
    Count of elements           : 689
    Stream size                 : 17.5 KiB (0%)
    Language                    : Spanish
    Default                     : No
    Forced                      : No

    Text #2
    ID                          : 5
    Format                      : PGS
    Muxing mode                 : zlib
    Codec ID                    : S_HDMV/PGS
    Codec ID/Info               : Picture based subtitle format used on BDs/HD-DVDs
    Duration                    : 1 h 22 min
    Bit rate                    : 18.4 kb/s
    Count of elements           : 1382
    Stream size                 : 10.8 MiB (0%)
    Language                    : Spanish
    Default                     : No
    Forced                      : No

    Menu
    00:00:00.000                : :Opening Credits
    00:04:32.647                : :Orphaned
    00:07:46.633                : :Widow Tweed Adopts Tod
    00:10:02.644                : :A Surprise for Chief
    00:11:32.483                : :Mischief in the Barn
    00:17:46.107                : :Tod and Copper Meet
    00:18:51.130                : :"The Best of Friends"
    00:23:06.427                : :Tod Gets Into Trouble
    00:27:44.288                : :Cooped Up
    00:30:40.756                : :"Lack of Education"
    00:37:55.857                : :The Next Spring
    00:43:20.223                : :A Difficult Reunion
    00:48:16.394                : :The Aftermath
    00:50:46.752                : :"Goodbye May Seem Forever"
    00:57:51.093                : :Big Mama Comes Looking for Tod
    01:01:28.727                : :Tod Meets Vixey
    01:05:01.314                : :"Appreciate the Lady"
    01:08:27.854                : :The Hunter Seeks Revenge
    01:13:56.432                : :An Unexpected Turn of Events
    01:17:05.955                : :Copper Saves Tod

  • Peso: 8.59 GiB

Sinopsis

La aventura y la diversión de este clásico de la Disney comienzan cuando una adorable viuda adopta un precioso cachorro de zorro llamado Tod. El travieso zorro pronto se encuentra con Toby, un adorable cachorro de perro de caza. Así se hace los dos inseparables amigos… sin saber que por su naturaleza deberían ser enemigos. Bajo la mirada vigilante de Mamá Búho, Tod y Toby juegan y se divierten en el bosque, inconscientes de que en el futuro tendrán que enfrentarse y poner su amistad a prueba.

Ficha técnica

Video trailer de la película

Enlaces de descarga

Rip de Bluray

Descargar El Zorro Y El Sabueso (1981) Full HD 1080p Latino – CMHDD




Aportes de DPeliculasHDmega la pass es:dpeliculashdmega.org Aportes de CinemaniaHD la pass es:cinemaniahdd.com

Películas relacionadas

Comentarios 0