×

¿Problemas para descargar con Mozilla, EDGE? Deshabilita la opción "Abrir vinculos en una pestaña nueva" tal como lo muestra ésta imagen.

El vuelo del halcón (2019) PLACEBO Full HD 1080p Latino

49 vistas

Información de El vuelo del halcón (2019) PLACEBO Full HD 1080p Latino

Datos de la película

  • Calidad: Full 1080p
  • Audio: Español Latino AC3 5.1 WEB-DL - Ingles DTS 5.1 BLURAY
  • Subtitulos: Español Latino SRT- FORZADOS SRT
  • Resolución: 1920x1080p
  • Formato: MKV
  • Codec: H.264
  • Encoder: Melkor
  • Mediainfo: Clic para Mostrar Datos Ver
  • El Vuelo Del Halcon (2019) PLACEBO 1080p Latino.mkv
    Format                      : Matroska
    Format version              : Version 4
    File size                   : 15.5 GiB
    Duration                    : 2 h 4 min
    Overall bit rate            : 17.8 Mb/s
    Movie name                  : The Rising Hawk (2019) CinemaniaHDD.Net
    Encoded date                : UTC 2022-10-30 18:34:02
    Writing application         : mkvmerge v56.1.0 ('My Friend') 64-bit
    Writing library             : libebml v1.4.2 + libmatroska v1.6.4
    Attachments                 : CINEMANIAHD.png

    Video
    ID                          : 1
    Format                      : AVC
    Format/Info                 : Advanced Video Codec
    Format profile              : High@L4.1
    Format settings             : CABAC / 4 Ref Frames
    Format settings, CABAC      : Yes
    Format settings, Reference  : 4 frames
    Codec ID                    : V_MPEG4/ISO/AVC
    Duration                    : 2 h 4 min
    Bit rate                    : 15.8 Mb/s
    Width                       : 1 920 pixels
    Height                      : 1 080 pixels
    Display aspect ratio        : 16:9
    Frame rate mode             : Constant
    Frame rate                  : 24.000 FPS
    Color space                 : YUV
    Chroma subsampling          : 4:2:0
    Bit depth                   : 8 bits
    Scan type                   : Progressive
    Bits/(Pixel*Frame)          : 0.318
    Stream size                 : 13.8 GiB (89%)
    Title                       : Full HD1080p [CinemaniaHDD]
    Writing library             : x264 core 163 r3059 b684ebe0
    Encoding settings           : cabac=1 / ref=4 / deblock=1:0:0 / analyse=0x3:0x133 / me=tesa / subme=11 / psy=1 / psy_rd=1.00:0.00 / mixed_ref=1 / me_range=24 / chroma_me=1 / trellis=2 / 8x8dct=1 / cqm=0 / deadzone=21,11 / fast_pskip=0 / chroma_qp_offset=-2 / threads=24 / lookahead_threads=6 / sliced_threads=0 / nr=0 / decimate=1 / interlaced=0 / bluray_compat=0 / constrained_intra=0 / bframes=16 / b_pyramid=2 / b_adapt=2 / b_bias=0 / direct=3 / weightb=1 / open_gop=0 / weightp=2 / keyint=240 / keyint_min=24 / scenecut=40 / intra_refresh=0 / rc_lookahead=60 / rc=crf / mbtree=1 / crf=19.0 / qcomp=0.60 / qpmin=0 / qpmax=69 / qpstep=4 / vbv_maxrate=62500 / vbv_bufsize=78125 / crf_max=0.0 / nal_hrd=none / filler=0 / ip_ratio=1.40 / aq=1:1.00
    Default                     : Yes
    Forced                      : Yes
    Color range                 : Limited
    Color primaries             : BT.709
    Transfer characteristics    : BT.709
    Matrix coefficients         : BT.709

    Audio #1
    ID                          : 2
    Format                      : AC-3
    Format/Info                 : Audio Coding 3
    Commercial name             : Dolby Digital
    Codec ID                    : A_AC3
    Duration                    : 2 h 4 min
    Bit rate mode               : Constant
    Bit rate                    : 448 kb/s
    Channel(s)                  : 6 channels
    Channel layout              : L R C LFE Ls Rs
    Sampling rate               : 48.0 kHz
    Frame rate                  : 31.250 FPS (1536 SPF)
    Compression mode            : Lossy
    Stream size                 : 400 MiB (3%)
    Title                       : Español Latino [CinemaniaHDD]
    Language                    : Spanish
    Service kind                : Complete Main
    Default                     : Yes
    Forced                      : Yes

    Audio #2
    ID                          : 3
    Format                      : DTS
    Format/Info                 : Digital Theater Systems
    Codec ID                    : A_DTS
    Duration                    : 2 h 4 min
    Bit rate mode               : Constant
    Bit rate                    : 1 509 kb/s
    Channel(s)                  : 6 channels
    Channel layout              : C L R Ls Rs LFE
    Sampling rate               : 48.0 kHz
    Frame rate                  : 93.750 FPS (512 SPF)
    Bit depth                   : 24 bits
    Compression mode            : Lossy
    Stream size                 : 1.32 GiB (8%)
    Title                       : Ingles [CinemaniaHDD]
    Language                    : English
    Default                     : No
    Forced                      : No

    Text #1
    ID                          : 4
    Format                      : UTF-8
    Codec ID                    : S_TEXT/UTF8
    Codec ID/Info               : UTF-8 Plain Text
    Duration                    : 2 min 52 s
    Bit rate                    : 11 b/s
    Count of elements           : 7
    Stream size                 : 248 Bytes (0%)
    Title                       : Forzados-SRT [CinemaniaHDD]
    Language                    : Spanish
    Default                     : Yes
    Forced                      : Yes

    Text #2
    ID                          : 5
    Format                      : UTF-8
    Codec ID                    : S_TEXT/UTF8
    Codec ID/Info               : UTF-8 Plain Text
    Duration                    : 1 h 58 min
    Bit rate                    : 24 b/s
    Count of elements           : 770
    Stream size                 : 21.1 KiB (0%)
    Title                       : Español-SRT [CinemaniaHDD]
    Language                    : Spanish
    Default                     : No
    Forced                      : No

    Text #3
    ID                          : 6
    Format                      : UTF-8
    Codec ID                    : S_TEXT/UTF8
    Codec ID/Info               : UTF-8 Plain Text
    Duration                    : 1 h 58 min
    Bit rate                    : 22 b/s
    Count of elements           : 838
    Stream size                 : 19.3 KiB (0%)
    Title                       : Ingles [CinemaniaHDD]
    Language                    : English
    Default                     : No
    Forced                      : No

    Menu
    00:00:00.000                : :Opening Credits
    00:02:58.000                : :Great Hunter
    00:09:12.750                : :In the Trap
    00:16:31.458                : :The Invitation
    00:24:13.458                : :The Legend
    00:30:47.250                : :Demons on Horses
    00:36:20.917                : :The Liberation
    00:43:08.167                : :Deep Grief
    00:51:14.542                : :Decision of the Gods
    01:00:14.167                : :Treason
    01:09:29.333                : :Demand of Unity
    01:17:27.208                : :We'll Meet Again
    01:27:10.833                : :We Fight
    01:33:01.000                : :Battle for Tuchlia
    01:39:45.625                : :Destroy the Dam!
    01:44:59.875                : :Pulls
    01:52:14.000                : :Proud
    01:59:53.625                : :End Credits

  • Peso: 15.5 GiB

Sinopsis

Descargar El vuelo del halcón (2019) PLACEBO Full HD 1080p Latino. El Imperio mongol se había convertido en el más grande que el mundo había conocido. Sus ejércitos habían sitiado gran parte de Europa del Este. Un pequeño pueblo en las montañas de los Cárpatos lucha por la libertad.

Ficha técnica

Video trailer de la película

Enlaces de descarga

Rip de Bluray

Descargar El vuelo del halcón (2019) PLACEBO Full HD 1080p Latino




Aportes de DPeliculasHDmega la pass es:dpeliculashdmega.org Aportes de CinemaniaHD la pass es:cinemaniahdd.com

Películas relacionadas

descargar El vuelo del halcón (2019) PLACEBO Full HD 1080p Latino Full 1080p 1080p gratis, El vuelo del halcón (2019) PLACEBO Full HD 1080p Latino Full 1080p mega 1 link, El vuelo del halcón (2019) PLACEBO Full HD 1080p Latino Full 1080p pelicula completa, descargar El vuelo del halcón (2019) PLACEBO Full HD 1080p Latino Full 1080p gratis en mega.

El vuelo del halcón (2019) PLACEBO Full HD 1080p Latino pelicula full hd, El vuelo del halcón (2019) PLACEBO Full HD 1080p Latino mega latino, El vuelo del halcón (2019) PLACEBO Full HD 1080p Latino 4k latino, El vuelo del halcón (2019) PLACEBO Full HD 1080p Latino pelicula completa, El vuelo del halcón (2019) PLACEBO Full HD 1080p Latino descargar gratis, descargar El vuelo del halcón (2019) PLACEBO Full HD 1080p Latino pelicula latino, El vuelo del halcón (2019) PLACEBO Full HD 1080p Latino 1 link mega, El vuelo del halcón (2019) PLACEBO Full HD 1080p Latino 1 link google drive, El vuelo del halcón (2019) PLACEBO Full HD 1080p Latino hd 1080p latino.
Comentarios 0