El Caballero y su pistola (2018) HD 1080p Español Latino

1.305 vistas
1 estrella2 estrellas3 estrellas4 estrellas5 estrellas (Ninguna valoración todavía)
Cargando…

Información de El Caballero y su pistola (2018) HD 1080p Español Latino

Datos de la película

  • Calidad: 1080p
  • Audio: Español Latino AC3 5.1 BLURAY - Ingles AC3 5.1 BLURAY
  • Subtitulos: Español Latino SRT
  • Resolución: 1920x804
  • Formato: MKV
  • Codec: H.264
  • Encoder: chesse92
  • Mediainfo: Clic para Mostrar Datos Ver
  • The Old Man & the Gun (2018) HD 1080p Español Latino.mkv
    Format                      : Matroska
    Format version              : Version 4
    File size                   : 2.80 GiB
    Duration                    : 1 h 33 min
    Overall bit rate            : 4 305 kb/s
    Movie name                  : CinemaniaHDD.net
    Encoded date                : UTC 2019-01-10 04:11:04 / UTC 2019-01-09T22:43:53Z
    Writing application         : mkvmerge v29.0.0 ('Like It Or Not') 64-bit
    Writing library             : libebml v1.3.6 + libmatroska v1.4.9 / Lavf57.7.2

    Video
    ID                          : 1
    Format                      : AVC
    Format/Info                 : Advanced Video Codec
    Format profile              : [email protected]
    Format settings             : CABAC / 5 Ref Frames
    Format settings, CABAC      : Yes
    Format settings, ReFrames   : 5 frames
    Codec ID                    : V_MPEG4/ISO/AVC
    Duration                    : 1 h 33 min
    Bit rate                    : 3 323 kb/s
    Nominal bit rate            : 3 500 kb/s
    Width                       : 1 920 pixels
    Height                      : 804 pixels
    Display aspect ratio        : 2.40:1
    Frame rate mode             : Constant
    Frame rate                  : 23.976 (24000/1001) FPS
    Color space                 : YUV
    Chroma subsampling          : 4:2:0
    Bit depth                   : 8 bits
    Scan type                   : Progressive
    Bits/(Pixel*Frame)          : 0.090
    Stream size                 : 2.16 GiB (77%)
    Writing library             : x264 core 155 r2901 7d0ff22
    Encoding settings           : cabac=1 / ref=5 / deblock=1:0:0 / analyse=0x3:0x113 / me=hex / subme=8 / psy=1 / psy_rd=1.00:0.00 / mixed_ref=1 / me_range=16 / chroma_me=1 / trellis=2 / 8x8dct=1 / cqm=0 / deadzone=21,11 / fast_pskip=1 / chroma_qp_offset=-2 / threads=25 / lookahead_threads=4 / sliced_threads=0 / nr=0 / decimate=1 / interlaced=0 / bluray_compat=0 / constrained_intra=0 / bframes=3 / b_pyramid=2 / b_adapt=1 / b_bias=0 / direct=3 / weightb=1 / open_gop=0 / weightp=2 / keyint=240 / keyint_min=24 / scenecut=40 / intra_refresh=0 / rc_lookahead=50 / rc=abr / mbtree=1 / bitrate=3500 / ratetol=1.0 / qcomp=0.60 / qpmin=0 / qpmax=69 / qpstep=4 / vbv_maxrate=62500 / vbv_bufsize=78125 / nal_hrd=none / filler=0 / ip_ratio=1.40 / aq=1:1.00
    Default                     : Yes
    Forced                      : No
    Color range                 : Limited
    Color primaries             : BT.709
    Transfer characteristics    : BT.709
    Matrix coefficients         : BT.709
    Statistics Tags Issue       : mkvmerge v29.0.0 ('Like It Or Not') 64-bit 2019-01-10 04:11:04 / mkvmerge v29.0.0 ('Like It Or Not') 64-bit 2019-01-10 04:11:04 / UTC 2019-01-09T22:43:53Z
    FromStats_BitRate           : 3406581
    FromStats_Duration          : 01:33:03.829000000
    FromStats_FrameCount        : 133878
    FromStats_StreamSize        : 2377721091

    Audio #1
    ID                          : 2
    Format                      : AC-3
    Format/Info                 : Audio Coding 3
    Commercial name             : Dolby Digital
    Codec ID                    : A_AC3
    Duration                    : 1 h 33 min
    Bit rate mode               : Constant
    Bit rate                    : 448 kb/s
    Channel(s)                  : 6 channels
    Channel layout              : L R C LFE Ls Rs
    Sampling rate               : 48.0 kHz
    Frame rate                  : 31.250 FPS (1536 SPF)
    Bit depth                   : 16 bits
    Compression mode            : Lossy
    Delay relative to video     : -5 ms
    Stream size                 : 298 MiB (10%)
    Title                       : Español Latino / www.cinemaniahdd.net
    Service kind                : Complete Main
    Default                     : No
    Forced                      : No
    Statistics Tags Issue       : mkvmerge v29.0.0 ('Like It Or Not') 64-bit 2019-01-10 04:11:04 / mkvmerge v29.0.0 ('Like It Or Not') 64-bit 2019-01-10 04:11:04 / UTC 2019-01-09T22:43:53Z
    FromStats_BitRate           : 448000
    FromStats_Duration          : 01:33:03.840000000
    FromStats_FrameCount        : 174495
    FromStats_StreamSize        : 312695040

    Audio #2
    ID                          : 3
    Format                      : AC-3
    Format/Info                 : Audio Coding 3
    Commercial name             : Dolby Digital
    Codec ID                    : A_AC3
    Duration                    : 1 h 33 min
    Bit rate mode               : Constant
    Bit rate                    : 448 kb/s
    Channel(s)                  : 6 channels
    Channel layout              : L R C LFE Ls Rs
    Sampling rate               : 48.0 kHz
    Frame rate                  : 31.250 FPS (1536 SPF)
    Bit depth                   : 16 bits
    Compression mode            : Lossy
    Stream size                 : 298 MiB (10%)
    Title                       : Surround
    Language                    : English
    Service kind                : Complete Main
    Default                     : Yes
    Forced                      : No
    Statistics Tags Issue       : mkvmerge v29.0.0 ('Like It Or Not') 64-bit 2019-01-10 04:11:04 / mkvmerge v29.0.0 ('Like It Or Not') 64-bit 2019-01-10 04:11:04 / UTC 2019-01-09T22:43:53Z
    FromStats_BitRate           : 448000
    FromStats_Duration          : 01:33:03.808000000
    FromStats_FrameCount        : 174494
    FromStats_StreamSize        : 312693248

    Text
    ID                          : 4
    Format                      : UTF-8
    Codec ID                    : S_TEXT/UTF8
    Codec ID/Info               : UTF-8 Plain Text
    Title                       : Español Latino / www.cinemaniahdd.net
    Language                    : Spanish
    Default                     : Yes
    Forced                      : No
    Statistics Tags Issue       : mkvmerge v29.0.0 ('Like It Or Not') 64-bit 2019-01-10 04:11:04 / mkvmerge v29.0.0 ('Like It Or Not') 64-bit 2019-01-10 04:11:04 / UTC 2019-01-09T22:43:53Z
    FromStats_BitRate           : 51
    FromStats_Duration          : 01:26:30.712000000
    FromStats_FrameCount        : 971
    FromStats_StreamSize        : 33365

    Menu
    00:00:00.000                : :Chapter 1
    00:03:21.618                : :Chapter 2
    00:08:18.498                : :Chapter 3
    00:13:35.940                : :Chapter 4
    00:19:34.507                : :Chapter 5
    00:23:02.214                : :Chapter 6
    00:26:35.761                : :Chapter 7
    00:30:38.962                : :Chapter 8
    00:34:17.472                : :Chapter 9
    00:38:02.155                : :Chapter 10
    00:41:30.780                : :Chapter 11
    00:44:40.970                : :Chapter 12
    00:48:19.230                : :Chapter 13
    00:50:06.003                : :Chapter 14
    00:53:44.304                : :Chapter 15
    00:56:18.876                : :Chapter 16
    01:00:09.981                : :Chapter 17
    01:04:19.022                : :Chapter 18
    01:09:40.968                : :Chapter 19
    01:14:20.790                : :Chapter 20
    01:18:02.678                : :Chapter 21
    01:21:18.248                : :Chapter 22
    01:24:33.944                : :Chapter 23
    01:26:49.996                : :Chapter 24

  • Peso: 2.80 GiB

Sinopsis

La verdadera historia de Forrest Tucker, desde su audaz fuga de San Quintín a la edad de 70 años hasta una serie de atracos sin precedentes que confundió a las autoridades y encantó al público. Envueltos en la búsqueda están un detective, que queda cautivado por el compromiso de Forrest con su oficio, y una mujer que lo ama a pesar de su profesión elegida.

Ficha técnica

  • Titulo original: The Old Man & the Gun
  • Fecha de lanzamiento: 27-09-2018 (United States of America)
  • Director: David Lowery
  • Género: Comedia, Crimen, Drama, HD 1080p
  • Puntuación: 0.0 0 votos
  • Duración:
    1h 33m

Video trailer de la película

Enlaces de descarga

Rip de Bluray

Descargar El Caballero y su pistola (2018) HD 1080p Español Latino




Aportes de DPeliculasHDmega la pass es:dpeliculashdmega.org Aportes de CinemaniaHD la pass es:cinemaniahdd.com
Guardado en : Comedia , Crimen , Drama , HD 1080p

Películas relacionadas

  • The mule (2018) WEB-DL 1080p Latino

    2018
    The mule (2018) WEB-DL 1080p Latino

    0.0 1h 56m 2018

    A Earl Stone (Eastwood), un octogenario que está en quiebra, solo, y que se enfrenta a la ejecución...

    Director: Clint Eastwood

    Género: Crimen

    Actores: Victor Rasuk

  • Swing (2018) WEB-DL 1080p Latino

    2018
    Swing (2018) WEB-DL 1080p Latino

    0.0 1h 44m 2018

    En una noche en la que predomina el alcohol, cuatro amigos deciden intercambiar a sus parejas. Esta decisión...

    Director: Luis Smok

    Género: Comedia

    Actores: Tiago Correa

  • Nace Una Estrella (2018) 4K UHD HDR Latino

    2018
    Nace Una Estrella (2018) 4K UHD HDR Latino

    0.0 2h 25m 2018

    Descargar Nace Una Estrella (2018) 4K UHD HDR Latino, Mega, Google Drive. Jackson Maine es una estrella...

    Director: Bradley Cooper

    Género: 4K HDR

    Actores: Willam Belli

Comentarios 0