El último virrey de la India (2017) 1080p Latino

989 vistas
1 estrella2 estrellas3 estrellas4 estrellas5 estrellas (Ninguna valoración todavía)
Cargando…

Información de El último virrey de la India (2017) 1080p Latino

Datos de la película

  • Calidad: 1080p
  • Audio: Español Latino AC3 2.0 iTUNES - Ingles AC3 5.1 BLURAY
  • Subtitulos: Español Latino SRT
  • Resolución: 1920x804p
  • Formato: MKV
  • Codec: H.264
  • Encoder: Dpelis
  • Mediainfo: Clic para Mostrar Datos Ver
  • Viceroys House (2017) 1080p Latino.mkv
    Format                      : Matroska
    Format version              : Version 4 / Version 2
    File size                   : 2.62 GiB
    Duration                    : 1 h 46 min
    Overall bit rate            : 3 539 kb/s
    Movie name                  : DPeliculasHDMega.ORG
    Encoded date                : UTC 2017-09-21 02:11:29 / UTC 2017-09-21T00:50:15Z
    Writing application         : mkvmerge v10.0.0 ('To Drown In You') 64bit
    Writing library             : libebml v1.3.4 + libmatroska v1.4.5 / Lavf57.7.2

    Video
    ID                          : 1
    Format                      : AVC
    Format/Info                 : Advanced Video Codec
    Format profile              : [email protected]
    Format settings, CABAC      : Yes
    Format settings, RefFrames  : 5 frames
    Codec ID                    : V_MPEG4/ISO/AVC
    Duration                    : 1 h 46 min
    Bit rate                    : 3 000 kb/s
    Width                       : 1 920 pixels
    Height                      : 804 pixels
    Display aspect ratio        : 2.40:1
    Frame rate mode             : Constant
    Frame rate                  : 24.000 FPS
    Color space                 : YUV
    Chroma subsampling          : 4:2:0
    Bit depth                   : 8 bits
    Scan type                   : Progressive
    Bits/(Pixel*Frame)          : 0.081
    Stream size                 : 2.14 GiB (82%)
    Writing library             : x264 core 148 r2708 86b7198
    Encoding settings           : cabac=1 / ref=5 / deblock=1:0:0 / analyse=0x3:0x113 / me=umh / subme=8 / psy=1 / psy_rd=1.00:0.00 / mixed_ref=1 / me_range=16 / chroma_me=1 / trellis=1 / 8x8dct=1 / cqm=0 / deadzone=21,11 / fast_pskip=1 / chroma_qp_offset=-2 / threads=25 / lookahead_threads=4 / sliced_threads=0 / nr=0 / decimate=1 / interlaced=0 / bluray_compat=0 / constrained_intra=0 / bframes=3 / b_pyramid=2 / b_adapt=2 / b_bias=0 / direct=3 / weightb=1 / open_gop=0 / weightp=2 / keyint=240 / keyint_min=24 / scenecut=40 / intra_refresh=0 / rc_lookahead=50 / rc=abr / mbtree=1 / bitrate=3000 / ratetol=1.0 / qcomp=0.60 / qpmin=0 / qpmax=69 / qpstep=4 / vbv_maxrate=62500 / vbv_bufsize=78125 / nal_hrd=none / filler=0 / ip_ratio=1.40 / aq=1:1.00
    Default                     : Yes
    Forced                      : No
    Color range                 : Limited
    Color primaries             : BT.709
    Transfer characteristics    : BT.709
    Matrix coefficients         : BT.709
    Statistics Tags Issue       : mkvmerge v10.0.0 ('To Drown In You') 64bit 2017-09-21 02:11:29 / mkvmerge v10.0.0 ('To Drown In You') 64bit 2017-09-21 02:11:29 / UTC 2017-09-21T00:50:15Z
    FromStats_BitRate           : 2960917
    FromStats_Duration          : 01:46:07.000000000
    FromStats_FrameCount        : 152808
    FromStats_StreamSize        : 2356520228

    Audio #1
    ID                          : 2
    Format                      : AC-3
    Format/Info                 : Audio Coding 3
    Format settings, Endianness : Big
    Codec ID                    : A_AC3
    Duration                    : 1 h 46 min
    Bit rate mode               : Constant
    Bit rate                    : 192 kb/s
    Channel(s)                  : 2 channels
    Channel positions           : Front: L R
    Sampling rate               : 48.0 kHz
    Frame rate                  : 31.250 FPS (1536 SPF)
    Bit depth                   : 16 bits
    Compression mode            : Lossy
    Delay relative to video     : 19 ms
    Stream size                 : 146 MiB (5%)
    Language                    : Spanish
    Service kind                : Complete Main
    Default                     : Yes
    Forced                      : No
    Statistics Tags Issue       : mkvmerge v10.0.0 ('To Drown In You') 64bit 2017-09-21 02:11:29 / mkvmerge v10.0.0 ('To Drown In You') 64bit 2017-09-21 02:11:29 / UTC 2017-09-21T00:50:15Z
    FromStats_BitRate           : 192000
    FromStats_Duration          : 01:46:05.088000000
    FromStats_FrameCount        : 198909
    FromStats_StreamSize        : 152762112

    Audio #2
    ID                          : 3
    Format                      : AC-3
    Format/Info                 : Audio Coding 3
    Format settings, Endianness : Big
    Codec ID                    : A_AC3
    Duration                    : 1 h 46 min
    Bit rate mode               : Constant
    Bit rate                    : 384 kb/s
    Channel(s)                  : 6 channels
    Channel positions           : Front: L C R, Side: L R, LFE
    Sampling rate               : 48.0 kHz
    Frame rate                  : 31.250 FPS (1536 SPF)
    Bit depth                   : 16 bits
    Compression mode            : Lossy
    Delay relative to video     : -5 ms
    Stream size                 : 291 MiB (11%)
    Title                       : Surround
    Service kind                : Complete Main
    Default                     : No
    Forced                      : No
    Statistics Tags Issue       : mkvmerge v10.0.0 ('To Drown In You') 64bit 2017-09-21 02:11:29 / mkvmerge v10.0.0 ('To Drown In You') 64bit 2017-09-21 02:11:29 / UTC 2017-09-21T00:50:15Z
    FromStats_BitRate           : 384000
    FromStats_Duration          : 01:46:07.040000000
    FromStats_FrameCount        : 198970
    FromStats_StreamSize        : 305617920

    Text #1
    ID                          : 4
    Format                      : UTF-8
    Codec ID                    : S_TEXT/UTF8
    Codec ID/Info               : UTF-8 Plain Text
    Language                    : Spanish
    Default                     : No
    Forced                      : No
    Statistics Tags Issue       : mkvmerge v10.0.0 ('To Drown In You') 64bit 2017-09-21 02:11:29 / mkvmerge v10.0.0 ('To Drown In You') 64bit 2017-09-21 02:11:29 / UTC 2017-09-21T00:50:15Z
    FromStats_BitRate           : 68
    FromStats_Duration          : 01:41:37.000000000
    FromStats_FrameCount        : 1438
    FromStats_StreamSize        : 52261

    Text #2
    ID                          : 5
    Format                      : UTF-8
    Codec ID                    : S_TEXT/UTF8
    Codec ID/Info               : UTF-8 Plain Text
    Language                    : Spanish
    Default                     : Yes
    Forced                      : No
    Statistics Tags Issue       : mkvmerge v10.0.0 ('To Drown In You') 64bit 2017-09-21 02:11:29 / mkvmerge v10.0.0 ('To Drown In You') 64bit 2017-09-21 02:11:29 / UTC 2017-09-21T00:50:15Z
    FromStats_BitRate           : 28
    FromStats_Duration          : 00:00:20.100000000
    FromStats_FrameCount        : 1
    FromStats_StreamSize        : 71

    Menu
    00:00:00.000                : :00:00:00.000
    00:07:37.417                : :00:07:37.417
    00:15:10.417                : :00:15:10.417
    00:25:02.958                : :00:25:02.958
    00:35:41.958                : :00:35:41.958
    00:43:00.875                : :00:43:00.875
    00:51:25.292                : :00:51:25.292
    01:00:56.250                : :01:00:56.250
    01:06:53.125                : :01:06:53.125
    01:15:58.167                : :01:15:58.167
    01:26:29.667                : :01:26:29.583
    01:32:09.000                : :01:32:08.91

  • Peso: 2.62 GB

Sinopsis

En 1947, Lord Mountbatten (Hugh Bonneville), el bisnieto de la reina Victoria, asume su posición como el último virrey de la India, con el objetivo de entregar el territorio de nuevo a su gente. Él vivía en la planta de arriba de la mansión de los gobernantes británicos, mientras que 500 criados musulmanes, sijs e hindúes se alojaban en el piso de abajo. A través de dos parejas -la formada por el matrimonio de Louis y Edwina Mountbatten y el romance entre los jóvenes criados Jeet (Manish Dayal) y Aalia (Huma Qureshi), él hindú y ella musulmana- nos adentraremos en un periodo histórico cargado de conflictos a medida que el Imperio llega a su fin.

Ficha técnica

  • Titulo original: Viceroy's House
  • Fecha de lanzamiento: 03-03-2017 (India, United Kingdom)
  • Director: Gurinder Chadha, San Davey
  • Género: Drama, Historia
  • Puntuación: 0.0 0 votos
  • Duración:
    1h 47m

Video trailer de la película

Enlaces de descarga

Rip de Bluray

Descargar El último virrey de la India (2017) 1080p Latino




Aportes de DPeliculasHDmega la pass es:dpeliculashdmega.org Aportes de CinemaniaHD la pass es:cinemaniahdd.com
Guardado en : Drama , Historia

Películas relacionadas

  • Native Son (2019) AMZN WEB-DL 1080p Latino

    2019
    Native Son (2019) AMZN WEB-DL 1080p Latino

    4.0 1h 50m 2019

    Bigger “Big” Thomas (Ashton Sanders) es un joven afroamericano que vive con su madre y hermanos en...

    Director: Rashid Johnson

    Género: Drama

    Actores: Stephen Henderson

  • Dragged Across Concrete (2018) WEB-DL Latino

    2019
    Dragged Across Concrete (2018) WEB-DL Latino

    0.0 2h 39m 2019

    Las películas de S. Craig Zahler se cuecen a fuego lento. Sin embargo, su carrera es fulgurante: ya...

    Director: Sam Harris

    Género: Acción

    Actores: Vivian Ng

  • Miss Bala (2019) WEB-DL 1080p Latino

    2019
    Miss Bala (2019) WEB-DL 1080p Latino

    0.0 1h 44m 2019

    La ganadora de un concurso de belleza se ve obligada a trabajar para un jefe del crimen después de ser...

    Director: Catherine Hardwicke

    Género: Acción

    Actores: Roberto Sosa

  • Amigos por Siempre (2019) WEB-DL 1080p Latino

    2019
    Amigos por Siempre (2019) WEB-DL 1080p Latino

    0.0 2h 3m 2019

    Remake norteamericano del gran éxito del cine francés "Intocable" (2011), que aborda la relación que...

    Director: Neil Burger

    Género: Comedia

    Actores: Ursula Triplett

Comentarios 10
  • jgava - 24 septiembre, 2017

    es cierto solo cuenta con una parte..no aparecen los demas link..de un solo te abre googledrive pero solo la parte 1..

    • dpelis - 24 septiembre, 2017

      no me dije q habia puesto un link y no el paste, ya fue reparado

  • Jordan - 23 septiembre, 2017

    Hola gracias por la peli, pero tu enlace de descarga solo nos lleva a la parte 1 de google drive si pudieras checkarlo como si fueras a descargar, igual se agradece!!!

    • dpelis - 23 septiembre, 2017

      los revise y estan bien. podria decirme en que sentido tu enlace de descarga solo nos lleva a la parte 1 de google drive , con imas fotitos para ver el error

      • Elimesito - 24 septiembre, 2017

        Lo que pasa es que al dar clic en descargar nos direcciona a la parte 1 de googledrive y no al pastedpelis que creo yo es lo correcto. Por favor corrijan eso, de antemano muchas gracias!

        • dpelis - 24 septiembre, 2017

          disculas, mil disculpas, reparado

  • Marco - 22 septiembre, 2017

    Hola, gracias por todos los aportes que a diario, nos brinda esta super web… con respecto a este post.. debo decir que al igual que Carlos, es cierto faltan 2 partes.. solo hay una en el enlace, aviso por cualquier duda que puedan tener los usuarios, Saludos

  • Carlos - 21 septiembre, 2017

    Faltan partes

    • dpelis - 22 septiembre, 2017

      son 3 partes,