×

¿Problemas para descargar con Mozilla, EDGE? Deshabilita la opción "Abrir vinculos en una pestaña nueva" tal como lo muestra ésta imagen.

El último Vermeer (2019) HD 1080p Latino

19 vistas

Información de El último Vermeer (2019) HD 1080p Latino

Datos de la película

  • Calidad: 1080p
  • Audio: Español Latino AC3 5.1 WEB-DL - Ingles AC3 5.1 BLURAY
  • Subtitulos: Español Latino SRT- FORZADOS SRT
  • Resolución: 1920x1036p
  • Formato: MKV
  • Codec: H.264
  • Encoder: Melkor
  • Mediainfo: Clic para Mostrar Datos Ver
  • El Ultimo  Vermeer (2019) HD 1080p Latino.mkv
    Format                      : Matroska
    Format version              : Version 4
    File size                   : 3.64 GiB
    Duration                    : 1 h 58 min
    Overall bit rate            : 4 403 kb/s
    Movie name                  : The Last Vermeer (2019) CinemaniaHDD.Net
    Encoded date                : UTC 2023-01-16 06:56:58
    Writing application         : mkvmerge v56.1.0 ('My Friend') 64-bit
    Writing library             : libebml v1.4.2 + libmatroska v1.6.4
    Attachments                 : CINEMANIAHD.png

    Video
    ID                          : 1
    Format                      : AVC
    Format/Info                 : Advanced Video Codec
    Format profile              : High@L4.1
    Format settings             : CABAC / 4 Ref Frames
    Format settings, CABAC      : Yes
    Format settings, Reference  : 4 frames
    Codec ID                    : V_MPEG4/ISO/AVC
    Duration                    : 1 h 58 min
    Bit rate                    : 3 314 kb/s
    Nominal bit rate            : 3 500 kb/s
    Width                       : 1 920 pixels
    Height                      : 1 036 pixels
    Display aspect ratio        : 1.85:1
    Frame rate mode             : Constant
    Frame rate                  : 23.976 (24000/1001) FPS
    Color space                 : YUV
    Chroma subsampling          : 4:2:0
    Bit depth                   : 8 bits
    Scan type                   : Progressive
    Bits/(Pixel*Frame)          : 0.069
    Stream size                 : 2.74 GiB (75%)
    Title                       : HD1080p [CinemaniaHDD]
    Writing library             : x264 core 163 r3059 b684ebe0
    Encoding settings           : cabac=1 / ref=4 / deblock=1:-1:-1 / analyse=0x3:0x133 / me=umh / subme=9 / psy=1 / psy_rd=1.00:0.15 / mixed_ref=1 / me_range=16 / chroma_me=1 / trellis=2 / 8x8dct=1 / cqm=0 / deadzone=21,11 / fast_pskip=1 / chroma_qp_offset=-3 / threads=24 / lookahead_threads=2 / sliced_threads=0 / nr=0 / decimate=1 / interlaced=0 / bluray_compat=0 / constrained_intra=0 / bframes=3 / b_pyramid=2 / b_adapt=2 / b_bias=0 / direct=3 / weightb=1 / open_gop=0 / weightp=2 / keyint=240 / keyint_min=24 / scenecut=40 / intra_refresh=0 / rc_lookahead=60 / rc=abr / mbtree=1 / bitrate=3500 / ratetol=1.0 / qcomp=0.60 / qpmin=0 / qpmax=69 / qpstep=4 / vbv_maxrate=62500 / vbv_bufsize=78125 / nal_hrd=none / filler=0 / ip_ratio=1.40 / aq=1:1.00
    Default                     : Yes
    Forced                      : Yes
    Color range                 : Limited
    Color primaries             : BT.709
    Transfer characteristics    : BT.709
    Matrix coefficients         : BT.709

    Audio #1
    ID                          : 2
    Format                      : AC-3
    Format/Info                 : Audio Coding 3
    Commercial name             : Dolby Digital
    Codec ID                    : A_AC3
    Duration                    : 1 h 58 min
    Bit rate mode               : Constant
    Bit rate                    : 640 kb/s
    Channel(s)                  : 6 channels
    Channel layout              : L R C LFE Ls Rs
    Sampling rate               : 48.0 kHz
    Frame rate                  : 31.250 FPS (1536 SPF)
    Compression mode            : Lossy
    Delay relative to video     : -5 ms
    Stream size                 : 541 MiB (15%)
    Title                       : Español Latino [CinemaniaHDD]
    Language                    : Spanish
    Service kind                : Complete Main
    Default                     : Yes
    Forced                      : Yes

    Audio #2
    ID                          : 3
    Format                      : AC-3
    Format/Info                 : Audio Coding 3
    Commercial name             : Dolby Digital
    Codec ID                    : A_AC3
    Duration                    : 1 h 58 min
    Bit rate mode               : Constant
    Bit rate                    : 448 kb/s
    Channel(s)                  : 6 channels
    Channel layout              : L R C LFE Ls Rs
    Sampling rate               : 48.0 kHz
    Frame rate                  : 31.250 FPS (1536 SPF)
    Compression mode            : Lossy
    Delay relative to video     : -5 ms
    Stream size                 : 378 MiB (10%)
    Title                       : Ingles [CinemaniaHDD]
    Language                    : English
    Service kind                : Complete Main
    Default                     : No
    Forced                      : No

    Text #1
    ID                          : 4
    Format                      : UTF-8
    Codec ID                    : S_TEXT/UTF8
    Codec ID/Info               : UTF-8 Plain Text
    Duration                    : 1 h 50 min
    Bit rate                    : 1 b/s
    Count of elements           : 19
    Stream size                 : 963 Bytes (0%)
    Title                       : Forzados-SRT [CinemaniaHDD]
    Language                    : Spanish
    Default                     : Yes
    Forced                      : Yes

    Text #2
    ID                          : 5
    Format                      : UTF-8
    Codec ID                    : S_TEXT/UTF8
    Codec ID/Info               : UTF-8 Plain Text
    Duration                    : 1 h 57 min
    Bit rate                    : 56 b/s
    Count of elements           : 1311
    Stream size                 : 48.9 KiB (0%)
    Title                       : Español-SRT [CinemaniaHDD]
    Language                    : Spanish
    Default                     : No
    Forced                      : No

    Menu
    00:00:00.000                : Chapter 01
    00:07:15.143                : Chapter 02
    00:14:46.802                : Chapter 03
    00:21:07.599                : Chapter 04
    00:30:09.974                : Chapter 05
    00:36:44.493                : Chapter 06
    00:39:17.313                : Chapter 07
    00:51:08.732                : Chapter 08
    00:55:44.174                : Chapter 09
    01:04:40.001                : Chapter 10
    01:11:34.123                : Chapter 11
    01:24:04.247                : Chapter 12
    01:28:48.698                : Chapter 13
    01:32:27.667                : Chapter 14
    01:38:00.916                : Chapter 15
    01:45:41.293                : Chapter 16
    01:49:18.677                : Chapter 17
    01:58:07.622                : Chapter 18

  • Peso: 3.64 GiB

Sinopsis

Descargar El último Vermeer (2019) HD 1080p Latino. Tras la II Guerra Mundial, un soldado llamado Joseph Piller investiga al reconocido artista holandés Han van Meegeren, acusado de conspirar con los nazis. A pesar de las creciente evidencias, Piller se va convenciendo cada vez más de la inocencia de Han, e intentará luchar para salvar la vida de ese artista de pasado misterioso.

Ficha técnica

Video trailer de la película

Enlaces de descarga

Rip de Bluray

Descargar El último Vermeer (2019) HD 1080p Latino




Aportes de DPeliculasHDmega la pass es:dpeliculashdmega.org Aportes de CinemaniaHD la pass es:cinemaniahdd.com
Guardado en : Drama , HD 1080p

Películas relacionadas

  • Juego de espías (2001) 1080p Latino

    Juego de espías (2001) 1080p Latino

    2001
    Juego de espías (2001) 1080p Latino

    2h 6m 2001

    Descargar Juego de espías (2001) 1080p Latino. Corre el año 1991, y al veterano agente de la CIA Nathan...

    Director: Tony Scott

    Género: Acción

    Actores: Zsolt Zágoni

  • Hombre de familia (2000) REMUX 1080p Latino

    Hombre de familia (2000) REMUX 1080p Latino

    2000
    Hombre de familia (2000) REMUX 1080p Latino

    2h 1m 2000

    Descargar Hombre de familia (2000) REMUX 1080p Latino. Jack Campbell es un egocéntrico broker de Wall...

    Director: Robert Schroer

    Género: Comedia

    Actores: Wass Stevens

descargar El último Vermeer (2019) HD 1080p Latino 1080p 1080p gratis, El último Vermeer (2019) HD 1080p Latino 1080p mega 1 link, El último Vermeer (2019) HD 1080p Latino 1080p pelicula completa, descargar El último Vermeer (2019) HD 1080p Latino 1080p gratis en mega.

El último Vermeer (2019) HD 1080p Latino pelicula full hd, El último Vermeer (2019) HD 1080p Latino mega latino, El último Vermeer (2019) HD 1080p Latino 4k latino, El último Vermeer (2019) HD 1080p Latino pelicula completa, El último Vermeer (2019) HD 1080p Latino descargar gratis, descargar El último Vermeer (2019) HD 1080p Latino pelicula latino, El último Vermeer (2019) HD 1080p Latino 1 link mega, El último Vermeer (2019) HD 1080p Latino 1 link google drive, El último Vermeer (2019) HD 1080p Latino hd 1080p latino.
Comentarios 0