El Ultimo Reino (2017) Temporada 2 NF 1080p Español Latino

207 vistas
1 estrella2 estrellas3 estrellas4 estrellas5 estrellas (Ninguna valoración todavía)
Cargando…

Información de El Ultimo Reino (2017) Temporada 2 NF 1080p Español Latino

Datos de la película

  • Calidad: WEBDL
  • Audio: Español Latino AC3 5.1 Netflix - Ingles AC3 5.1 Netflix
  • Subtitulos: Español Latino SRT
  • Resolución: 1920x1080
  • Formato: MKV
  • Codec: H.264
  • Encoder: cinemaniahd
  • Mediainfo: Clic para Mostrar Datos Ver
  • The Last Kingdom S02E01 NF 1080p Español Latino.mkv
    Format                      : Matroska
    Format version              : Version 4
    File size                   : 2.35 GiB
    Duration                    : 57 min 26 s
    Overall bit rate mode       : Variable
    Overall bit rate            : 5 853 kb/s
    Movie name                  : CinemaniaHDD.net
    Encoded date                : UTC 2019-01-10 00:12:09
    Writing application         : mkvmerge v29.0.0 ('Like It Or Not') 64-bit
    Writing library             : libebml v1.3.6 + libmatroska v1.4.9

    Video
    ID                          : 1
    Format                      : AVC
    Format/Info                 : Advanced Video Codec
    Format profile              : [email protected]
    Format settings             : CABAC / 3 Ref Frames
    Format settings, CABAC      : Yes
    Format settings, ReFrames   : 3 frames
    Codec ID                    : V_MPEG4/ISO/AVC
    Duration                    : 57 min 26 s
    Bit rate mode               : Variable
    Bit rate                    : 5 110 kb/s
    Maximum bit rate            : 7 665 kb/s
    Width                       : 1 920 pixels
    Height                      : 1 080 pixels
    Display aspect ratio        : 16:9
    Frame rate mode             : Constant
    Frame rate                  : 25.000 FPS
    Color space                 : YUV
    Chroma subsampling          : 4:2:0
    Bit depth                   : 8 bits
    Scan type                   : Progressive
    Bits/(Pixel*Frame)          : 0.099
    Stream size                 : 2.04 GiB (87%)
    Writing library             : x264 core 148 r2714 2daf636
    Encoding settings           : cabac=1 / ref=3 / deblock=1:0:0 / analyse=0x1:0x111 / me=umh / subme=10 / psy=1 / psy_rd=1.00:0.00 / mixed_ref=1 / me_range=24 / chroma_me=1 / trellis=2 / 8x8dct=0 / cqm=0 / deadzone=21,11 / fast_pskip=1 / chroma_qp_offset=-2 / threads=8 / lookahead_threads=1 / sliced_threads=0 / nr=0 / decimate=1 / interlaced=0 / bluray_compat=0 / stitchable=1 / constrained_intra=0 / bframes=2 / b_pyramid=0 / b_adapt=2 / b_bias=0 / direct=3 / weightb=1 / open_gop=0 / weightp=2 / keyint=50 / keyint_min=26 / scenecut=0 / intra_refresh=0 / rc_lookahead=50 / rc=2pass / mbtree=1 / bitrate=5110 / ratetol=1.0 / qcomp=0.50 / qpmin=6 / qpmax=51 / qpstep=4 / cplxblur=20.0 / qblur=0.5 / vbv_maxrate=7665 / vbv_bufsize=10220 / nal_hrd=vbr / filler=0 / ip_ratio=1.40 / aq=1:1.00
    Default                     : Yes
    Forced                      : No

    Audio #1
    ID                          : 2
    Format                      : AC-3
    Format/Info                 : Audio Coding 3
    Commercial name             : Dolby Digital
    Codec ID                    : A_AC3
    Duration                    : 57 min 26 s
    Bit rate mode               : Constant
    Bit rate                    : 384 kb/s
    Channel(s)                  : 6 channels
    Channel layout              : L R C LFE Ls Rs
    Sampling rate               : 48.0 kHz
    Frame rate                  : 31.250 FPS (1536 SPF)
    Bit depth                   : 16 bits
    Compression mode            : Lossy
    Stream size                 : 158 MiB (7%)
    Language                    : Spanish
    Service kind                : Complete Main
    Default                     : Yes
    Forced                      : No

    Audio #2
    ID                          : 3
    Format                      : AC-3
    Format/Info                 : Audio Coding 3
    Commercial name             : Dolby Digital
    Codec ID                    : A_AC3
    Duration                    : 57 min 26 s
    Bit rate mode               : Constant
    Bit rate                    : 384 kb/s
    Channel(s)                  : 6 channels
    Channel layout              : L R C LFE Ls Rs
    Sampling rate               : 48.0 kHz
    Frame rate                  : 31.250 FPS (1536 SPF)
    Bit depth                   : 16 bits
    Compression mode            : Lossy
    Stream size                 : 158 MiB (7%)
    Title                       : Ingles / www.cinemaniahdd.net
    Service kind                : Complete Main
    Default                     : No
    Forced                      : No

    Text
    ID                          : 4
    Format                      : UTF-8
    Codec ID                    : S_TEXT/UTF8
    Codec ID/Info               : UTF-8 Plain Text
    Duration                    : 56 min 23 s
    Bit rate                    : 60 b/s
    Count of elements           : 791
    Stream size                 : 25.2 KiB (0%)
    Title                       : Spanish
    Language                    : Spanish
    Default                     : No
    Forced                      : No

  • Peso: 2 GB C/U

Sinopsis

El Ultimo Reino (2017) Temporada 2 NF 1080p Español Latino, La serie está ambientada en el siglo IX donde lo que hoy se conoce como Inglaterra eran varios reinos independientes. Las tierras anglosajonas son atacadas y en muchos casos gobernadas por fuerzas vikingas. El reino de Wessex se ha dejado solo bajo el mando del Rey Alfred el Grande. Uhtred, hijo huérfano de un noble sajón, es secuestrado por los normandos y criado como uno de ellos. Así, es obligado a elegir entre un reino que comparte sus ancestros y la gente a la que es leal.

‘The Last Kingdom’ es una adaptación de la serie de novelas históricas de Bernard Cornwell conocida como ‘The Saxon Stories’ producida por BBC America. La serie está protagonizada por Alexander Dreymon, Rutger Hauer, Matthew MacFadyen, Emily Cox, Ian Hart y Tobias Santelmann entre otros. Stephen Butchard es el creador mientras que Nick Murphy se encarga de la dirección.

 

Ficha técnica

Video trailer de la película

Enlaces de descarga

Rip de Bluray

Descargar El Ultimo Reino (2017) Temporada 2 NF 1080p Español Latino




Aportes de DPeliculasHDmega la pass es:dpeliculashdmega.org Aportes de CinemaniaHD la pass es:cinemaniahdd.com
Guardado en : Action & Adventure , Drama , Series

Películas relacionadas

  • Boy Erased (2018) HD 1080p Latino

    2018
    Boy Erased (2018) HD 1080p Latino

    0.0 1h 54m 2018

    Descargar Boy Erased (2018) HD 1080p Latino, Mega, Google Drive, Torrent. La historia se centra en el...

    Director: Joel Edgerton

    Género: Drama

    Actores: Xavier Dolan

  • Indivisible (2018) HD Español Latino

    2018
    Indivisible (2018) HD Español Latino

    0.0 2h 0m 2018

    'Indivisible' narra la extraordinaria historia real del capellán del ejército Darren Turner y su esposa...

    Director: David G. Evans

    Género: Bélica

    Actores: Tia Mowry

  • Nace Una Estrella (2018) Web-DL 1080p Latino

    2018
    Nace Una Estrella (2018) Web-DL 1080p Latino

    3.0 2h 15m 2018

    Descargar Nace Una Estrella (2018) Web-DL 1080p Latino, Mega, Google Drive, Torrent. Jackson Maine es...

    Director: Bradley Cooper

    Género: Drama

    Actores: Willam Belli

Comentarios 0