×

¿Problemas para descargar con Mozilla, EDGE? Deshabilita la opción "Abrir vinculos en una pestaña nueva" tal como lo muestra ésta imagen.

El último duelo (2021) WEB-DL 4K UHD HDR Latino

302 vistas

Información de El último duelo (2021) WEB-DL 4K UHD HDR Latino

Datos de la película

  • Calidad: WEBDL
  • Audio: Español Latino AC3 5.1 WEB-DL - Ingles AC3 5.1 WEB-DL
  • Subtitulos: Español Latino SRT- FORZADOS SRT
  • Resolución: 3840x1608p
  • Formato: MKV
  • Codec: HEVC
  • Encoder: Melkor
  • Mediainfo: Clic para Mostrar Datos Ver
  • El Ultimo Duelo (2021) WEB UHD HDR Latino.mkv
    Format                      : Matroska
    Format version              : Version 4
    File size                   : 16.7 GiB
    Duration                    : 2 h 32 min
    Overall bit rate            : 15.6 Mb/s
    Movie name                  : The Last Duel (2021) CinemaniaHDD.Net
    Encoded date                : UTC 2021-12-01 03:10:15
    Writing application         : mkvmerge v56.1.0 ('My Friend') 64-bit
    Writing library             : libebml v1.4.2 + libmatroska v1.6.4
    Attachments                 : CINEMANIAHD.png

    Video
    ID                          : 1
    Format                      : HEVC
    Format/Info                 : High Efficiency Video Coding
    Format profile              : Main 10@L5@High
    HDR format                  : SMPTE ST 2086, HDR10 compatible
    Codec ID                    : V_MPEGH/ISO/HEVC
    Duration                    : 2 h 32 min
    Bit rate                    : 14.4 Mb/s
    Width                       : 3 840 pixels
    Height                      : 1 608 pixels
    Display aspect ratio        : 2.40:1
    Frame rate mode             : Constant
    Frame rate                  : 23.976 (24000/1001) FPS
    Color space                 : YUV
    Chroma subsampling          : 4:2:0 (Type 2)
    Bit depth                   : 10 bits
    Bits/(Pixel*Frame)          : 0.097
    Stream size                 : 15.4 GiB (92%)
    Title                       : Web 2160p HDR [CinemaniaHDD]
    Default                     : Yes
    Forced                      : No
    Color range                 : Limited
    Color primaries             : BT.2020
    Transfer characteristics    : PQ
    Matrix coefficients         : BT.2020 non-constant
    Mastering display color pri : BT.2020
    Mastering display luminance : min: 0.0050 cd/m2, max: 1000 cd/m2
    Maximum Content Light Level : 1088 cd/m2
    Maximum Frame-Average Light : 131 cd/m2

    Audio #1
    ID                          : 2
    Format                      : AC-3
    Format/Info                 : Audio Coding 3
    Commercial name             : Dolby Digital
    Codec ID                    : A_AC3
    Duration                    : 2 h 32 min
    Bit rate mode               : Constant
    Bit rate                    : 448 kb/s
    Channel(s)                  : 6 channels
    Channel layout              : L R C LFE Ls Rs
    Sampling rate               : 48.0 kHz
    Frame rate                  : 31.250 FPS (1536 SPF)
    Compression mode            : Lossy
    Stream size                 : 489 MiB (3%)
    Title                       : Español Latino [CinemaniaHDD]
    Language                    : Spanish
    Service kind                : Complete Main
    Default                     : Yes
    Forced                      : Yes

    Audio #2
    ID                          : 3
    Format                      : E-AC-3 JOC
    Format/Info                 : Enhanced AC-3 with Joint Object Coding
    Commercial name             : Dolby Digital Plus with Dolby Atmos
    Codec ID                    : A_EAC3
    Duration                    : 2 h 32 min
    Bit rate mode               : Constant
    Bit rate                    : 768 kb/s
    Channel(s)                  : 6 channels
    Channel layout              : L R C LFE Ls Rs
    Sampling rate               : 48.0 kHz
    Frame rate                  : 31.250 FPS (1536 SPF)
    Compression mode            : Lossy
    Stream size                 : 839 MiB (5%)
    Title                       : Ingles [CinemaniaHDD]
    Language                    : English
    Service kind                : Complete Main
    Default                     : No
    Forced                      : No
    Complexity index            : 16
    Number of dynamic objects   : 15
    Bed channel count           : 1 channel
    Bed channel configuration   : LFE

    Text #1
    ID                          : 4
    Format                      : UTF-8
    Codec ID                    : S_TEXT/UTF8
    Codec ID/Info               : UTF-8 Plain Text
    Duration                    : 2 h 22 min
    Bit rate                    : 0 b/s
    Count of elements           : 20
    Stream size                 : 659 Bytes (0%)
    Title                       : Forzados-SRT [CinemaniaHDD]
    Language                    : Spanish
    Default                     : Yes
    Forced                      : Yes

    Text #2
    ID                          : 5
    Format                      : UTF-8
    Codec ID                    : S_TEXT/UTF8
    Codec ID/Info               : UTF-8 Plain Text
    Duration                    : 2 h 22 min
    Bit rate                    : 47 b/s
    Count of elements           : 1691
    Stream size                 : 49.2 KiB (0%)
    Title                       : Español-SRT [CinemaniaHDD]
    Language                    : Spanish
    Default                     : No
    Forced                      : No

    Text #3
    ID                          : 6
    Format                      : UTF-8
    Codec ID                    : S_TEXT/UTF8
    Codec ID/Info               : UTF-8 Plain Text
    Duration                    : 2 h 22 min
    Bit rate                    : 47 b/s
    Count of elements           : 1684
    Stream size                 : 49.7 KiB (0%)
    Title                       : Ingles-SRT [CinemaniaHDD]
    Language                    : English
    Default                     : No
    Forced                      : No

  • Peso: 16.7 GiB

Sinopsis

Descargar El último duelo (2021) WEB-DL 4K UHD HDR Latino. Ambientada en Francia, en 1386, cuenta el enfrentamiento entre el caballero Jean de Carrouges y el escudero Jacques LeGris , al acusar el primero al segundo de abusar de su esposa, Marguerite de Carrouges. El Rey Carlos VI decide que la mejor forma de solucionar el conflicto es un duelo a muerte. El que venza será el ganador, sin embargo, si lo hace el escudero, la esposa del caballero será quemada como castigo por falsas acusaciones.

Ficha técnica

Video trailer de la película

Enlaces de descarga

Rip de Bluray

Descargar El último duelo (2021) WEB-DL 4K UHD HDR Latino




Aportes de DPeliculasHDmega la pass es:dpeliculashdmega.org Aportes de CinemaniaHD la pass es:cinemaniahdd.com
Guardado en : 4K HDR , 4K UHD , Acción , Drama , Historia

Películas relacionadas

descargar El último duelo (2021) WEB-DL 4K UHD HDR Latino WEBDL 1080p gratis, El último duelo (2021) WEB-DL 4K UHD HDR Latino WEBDL mega 1 link, El último duelo (2021) WEB-DL 4K UHD HDR Latino WEBDL pelicula completa, descargar El último duelo (2021) WEB-DL 4K UHD HDR Latino WEBDL gratis en mega.

El último duelo (2021) WEB-DL 4K UHD HDR Latino pelicula full hd, El último duelo (2021) WEB-DL 4K UHD HDR Latino mega latino, El último duelo (2021) WEB-DL 4K UHD HDR Latino 4k latino, El último duelo (2021) WEB-DL 4K UHD HDR Latino pelicula completa, El último duelo (2021) WEB-DL 4K UHD HDR Latino descargar gratis, descargar El último duelo (2021) WEB-DL 4K UHD HDR Latino pelicula latino, El último duelo (2021) WEB-DL 4K UHD HDR Latino 1 link mega, El último duelo (2021) WEB-DL 4K UHD HDR Latino 1 link google drive, El último duelo (2021) WEB-DL 4K UHD HDR Latino hd 1080p latino.
Comentarios 0