×

¿Problemas para descargar con Mozilla, EDGE? Deshabilita la opción "Abrir vinculos en una pestaña nueva" tal como lo muestra ésta imagen.

El último duelo (2021) REMUX 4K UHD HDR Latino

498 vistas

Información de El último duelo (2021) REMUX 4K UHD HDR Latino

Datos de la película

  • Calidad: 4K HDR
  • Audio: Se especifica abajo de la Sinopsis
  • Subtitulos: Español Latino PGS - Ingles PGS
  • Resolución: 3840x2160p
  • Formato: MKV
  • Codec: HEVC
  • Encoder: Melkor
  • Mediainfo: Clic para Mostrar Datos Ver
  • El Ultimo Duelo (2021) REMUX UHD HDR Latino.mkv
    Format                      : Matroska
    Format version              : Version 4
    File size                   : 52.5 GiB
    Duration                    : 2 h 32 min
    Overall bit rate mode       : Variable
    Overall bit rate            : 49.2 Mb/s
    Movie name                  : The Last Duel (2021) CinemaniaHDD.Net
    Encoded date                : UTC 2021-12-10 07:55:37
    Writing application         : mkvmerge v56.1.0 ('My Friend') 64-bit
    Writing library             : libebml v1.4.2 + libmatroska v1.6.4
    Attachments                 : CINEMANIAHD.png

    Video
    ID                          : 1
    ID in the original source m : 4113 (0x1011)
    Format                      : HEVC
    Format/Info                 : High Efficiency Video Coding
    Format profile              : Main 10@L5.1@High
    HDR format                  : SMPTE ST 2086, HDR10 compatible
    Codec ID                    : V_MPEGH/ISO/HEVC
    Duration                    : 2 h 32 min
    Bit rate                    : 43.5 Mb/s
    Width                       : 3 840 pixels
    Height                      : 2 160 pixels
    Display aspect ratio        : 16:9
    Frame rate mode             : Constant
    Frame rate                  : 23.976 (24000/1001) FPS
    Color space                 : YUV
    Chroma subsampling          : 4:2:0 (Type 2)
    Bit depth                   : 10 bits
    Bits/(Pixel*Frame)          : 0.219
    Stream size                 : 46.4 GiB (89%)
    Title                       : REMUX 2160p HDR [Bluray]
    Language                    : English
    Default                     : Yes
    Forced                      : Yes
    Color range                 : Limited
    Color primaries             : BT.2020
    Transfer characteristics    : PQ
    Matrix coefficients         : BT.2020 non-constant
    Mastering display color pri : Display P3
    Mastering display luminance : min: 0.0050 cd/m2, max: 1000 cd/m2
    Original source medium      : Blu-ray

    Audio #1
    ID                          : 2
    Format                      : AC-3
    Format/Info                 : Audio Coding 3
    Commercial name             : Dolby Digital
    Codec ID                    : A_AC3
    Duration                    : 2 h 32 min
    Bit rate mode               : Constant
    Bit rate                    : 448 kb/s
    Channel(s)                  : 6 channels
    Channel layout              : L R C LFE Ls Rs
    Sampling rate               : 48.0 kHz
    Frame rate                  : 31.250 FPS (1536 SPF)
    Compression mode            : Lossy
    Stream size                 : 489 MiB (1%)
    Title                       : Español Latino [CinemaniaHDD]
    Language                    : Spanish
    Service kind                : Complete Main
    Default                     : Yes
    Forced                      : Yes

    Audio #2
    ID                          : 3
    ID in the original source m : 4352 (0x1100)
    Format                      : MLP FBA 16-ch
    Format/Info                 : Meridian Lossless Packing FBA with 16-channel presentation
    Commercial name             : Dolby TrueHD with Dolby Atmos
    Codec ID                    : A_TRUEHD
    Duration                    : 2 h 32 min
    Bit rate mode               : Variable
    Bit rate                    : 4 446 kb/s
    Maximum bit rate            : 8 448 kb/s
    Channel(s)                  : 8 channels
    Channel layout              : L R C LFE Ls Rs Lb Rb
    Sampling rate               : 48.0 kHz
    Frame rate                  : 1 200.000 FPS (40 SPF)
    Bit depth                   : 24 bits
    Compression mode            : Lossless
    Stream size                 : 4.74 GiB (9%)
    Title                       : Ingles THD [CinemaniaHDD]
    Language                    : English
    Default                     : No
    Forced                      : No
    Original source medium      : Blu-ray
    Number of dynamic objects   : 13
    Bed channel count           : 1 channel
    Bed channel configuration   : LFE

    Audio #3
    ID                          : 4
    ID in the original source m : 4352 (0x1100)
    Format                      : AC-3
    Format/Info                 : Audio Coding 3
    Commercial name             : Dolby Digital
    Codec ID                    : A_AC3
    Duration                    : 2 h 32 min
    Bit rate mode               : Constant
    Bit rate                    : 640 kb/s
    Channel(s)                  : 6 channels
    Channel layout              : L R C LFE Ls Rs
    Sampling rate               : 48.0 kHz
    Frame rate                  : 31.250 FPS (1536 SPF)
    Compression mode            : Lossy
    Stream size                 : 699 MiB (1%)
    Title                       : Ingles AC3 [CinemaniaHDD]
    Language                    : English
    Service kind                : Complete Main
    Default                     : No
    Forced                      : No
    Original source medium      : Blu-ray

    Text #1
    ID                          : 5
    ID in the original source m : 4615 (0x1207)
    Format                      : PGS
    Muxing mode                 : zlib
    Codec ID                    : S_HDMV/PGS
    Codec ID/Info               : Picture based subtitle format used on BDs/HD-DVDs
    Duration                    : 2 h 22 min
    Bit rate                    : 563 b/s
    Count of elements           : 56
    Stream size                 : 589 KiB (0%)
    Title                       : Sub_Forzados [PGS]
    Language                    : Spanish
    Default                     : No
    Forced                      : No
    Original source medium      : Blu-ray

    Text #2
    ID                          : 6
    ID in the original source m : 4610 (0x1202)
    Format                      : PGS
    Muxing mode                 : zlib
    Codec ID                    : S_HDMV/PGS
    Codec ID/Info               : Picture based subtitle format used on BDs/HD-DVDs
    Duration                    : 2 h 31 min
    Bit rate                    : 29.9 kb/s
    Count of elements           : 3386
    Stream size                 : 32.4 MiB (0%)
    Title                       : Sub_Esp [PGS]
    Language                    : Spanish
    Default                     : No
    Forced                      : No
    Original source medium      : Blu-ray

    Text #3
    ID                          : 7
    ID in the original source m : 4768 (0x12A0)
    Format                      : PGS
    Muxing mode                 : zlib
    Codec ID                    : S_HDMV/PGS
    Codec ID/Info               : Picture based subtitle format used on BDs/HD-DVDs
    Duration                    : 2 h 28 min
    Bit rate                    : 41.7 kb/s
    Count of elements           : 4336
    Stream size                 : 44.4 MiB (0%)
    Title                       : Sub_Eng [PGS]
    Language                    : English
    Default                     : No
    Forced                      : No
    Original source medium      : Blu-ray

    Text #4
    ID                          : 8
    Format                      : UTF-8
    Codec ID                    : S_TEXT/UTF8
    Codec ID/Info               : UTF-8 Plain Text
    Duration                    : 2 h 22 min
    Bit rate                    : 0 b/s
    Count of elements           : 20
    Stream size                 : 659 Bytes (0%)
    Title                       : Sub_Forzados
    Language                    : Spanish
    Default                     : Yes
    Forced                      : Yes

    Text #5
    ID                          : 9
    Format                      : UTF-8
    Codec ID                    : S_TEXT/UTF8
    Codec ID/Info               : UTF-8 Plain Text
    Duration                    : 2 h 22 min
    Bit rate                    : 47 b/s
    Count of elements           : 1691
    Stream size                 : 49.2 KiB (0%)
    Title                       : Sub_Esp
    Language                    : Spanish
    Default                     : No
    Forced                      : No

    Menu
    00:00:00.000                : Chapter 01
    00:05:02.468                : Chapter 02
    00:09:42.206                : Chapter 03
    00:17:43.645                : Chapter 04
    00:25:59.599                : Chapter 05
    00:33:25.294                : Chapter 06
    00:38:51.037                : Chapter 07
    00:42:34.385                : Chapter 08
    00:54:23.176                : Chapter 09
    01:05:52.490                : Chapter 10
    01:17:07.456                : Chapter 11
    01:25:24.702                : Chapter 12
    01:32:49.897                : Chapter 13
    01:40:17.177                : Chapter 14
    01:52:06.720                : Chapter 15
    02:05:28.229                : Chapter 16
    02:22:25.787                : Chapter 17

  • Peso: 52.5 GiB

Sinopsis

Descargar El último duelo (2021) REMUX 4K UHD HDR Latino. Ambientada en Francia, en 1386, cuenta el enfrentamiento entre el caballero Jean de Carrouges y el escudero Jacques LeGris , al acusar el primero al segundo de abusar de su esposa, Marguerite de Carrouges. El Rey Carlos VI decide que la mejor forma de solucionar el conflicto es un duelo a muerte. El que venza será el ganador, sin embargo, si lo hace el escudero, la esposa del caballero será quemada como castigo por falsas acusaciones.

Español Latino AC3 5.1 WebDL – Ingles TrueHD 7.1 & AC3 5.1 BD

Disponible Solo Para VIP!!!

Ficha técnica

Video trailer de la película

Enlaces de descarga

Rip de Bluray

Descargar El último duelo (2021) REMUX 4K UHD HDR Latino


Aportes de DPeliculasHDmega la pass es:dpeliculashdmega.org Aportes de CinemaniaHD la pass es:cinemaniahdd.com
Guardado en : 4K HDR , 4K UHD , Acción , Drama , Historia , Remux

Películas relacionadas

descargar El último duelo (2021) REMUX 4K UHD HDR Latino 4K HDR 1080p gratis, El último duelo (2021) REMUX 4K UHD HDR Latino 4K HDR mega 1 link, El último duelo (2021) REMUX 4K UHD HDR Latino 4K HDR pelicula completa, descargar El último duelo (2021) REMUX 4K UHD HDR Latino 4K HDR gratis en mega.

El último duelo (2021) REMUX 4K UHD HDR Latino pelicula full hd, El último duelo (2021) REMUX 4K UHD HDR Latino mega latino, El último duelo (2021) REMUX 4K UHD HDR Latino 4k latino, El último duelo (2021) REMUX 4K UHD HDR Latino pelicula completa, El último duelo (2021) REMUX 4K UHD HDR Latino descargar gratis, descargar El último duelo (2021) REMUX 4K UHD HDR Latino pelicula latino, El último duelo (2021) REMUX 4K UHD HDR Latino 1 link mega, El último duelo (2021) REMUX 4K UHD HDR Latino 1 link google drive, El último duelo (2021) REMUX 4K UHD HDR Latino hd 1080p latino.
Comentarios 0