×

¿Problemas para descargar con Mozilla, EDGE? Deshabilita la opción "Abrir vinculos en una pestaña nueva" tal como lo muestra ésta imagen.

El último duelo (2021) AMZN WEB-DL 1080p Latino

228 vistas

Información de El último duelo (2021) AMZN WEB-DL 1080p Latino

Datos de la película

  • Calidad: WEBDL
  • Audio: Español Latino AC3 5.1 WEB-DL - Ingles AC3 5.1 WEB-DL
  • Subtitulos: Español Latino SRT- FORZADOS SRT
  • Resolución: 1920x800p
  • Formato: MKV
  • Codec: H.264
  • Encoder: Melkor
  • Mediainfo: Clic para Mostrar Datos Ver
  • El Ultimo Duelo (2021) AMZN Web-DL 1080p Latino.mkv
    Format                      : Matroska
    Format version              : Version 4
    File size                   : 8.76 GiB
    Duration                    : 2 h 33 min
    Overall bit rate            : 8 152 kb/s
    Movie name                  : The Last Duel (2021) CinemaniaHDD.Net
    Encoded date                : UTC 2021-12-01 03:06:21
    Writing application         : mkvmerge v56.1.0 ('My Friend') 64-bit
    Writing library             : libebml v1.4.2 + libmatroska v1.6.4
    Attachments                 : CINEMANIAHD.png

    Video
    ID                          : 1
    Format                      : AVC
    Format/Info                 : Advanced Video Codec
    Format profile              : High@L4
    Format settings             : CABAC / 4 Ref Frames
    Format settings, CABAC      : Yes
    Format settings, Reference  : 4 frames
    Codec ID                    : V_MPEG4/ISO/AVC
    Duration                    : 2 h 33 min
    Bit rate mode               : Constant
    Bit rate                    : 6 943 kb/s
    Nominal bit rate            : 10 000 kb/s
    Width                       : 1 920 pixels
    Height                      : 800 pixels
    Display aspect ratio        : 2.40:1
    Frame rate mode             : Constant
    Frame rate                  : 23.976 (24000/1001) FPS
    Color space                 : YUV
    Chroma subsampling          : 4:2:0
    Bit depth                   : 8 bits
    Scan type                   : Progressive
    Bits/(Pixel*Frame)          : 0.189
    Stream size                 : 7.46 GiB (85%)
    Title                       : Web HD1080p [CinemaniaHDD]
    Default                     : Yes
    Forced                      : No
    Color range                 : Limited
    Color primaries             : BT.709
    Transfer characteristics    : BT.709
    Matrix coefficients         : BT.709

    Audio #1
    ID                          : 2
    Format                      : AC-3
    Format/Info                 : Audio Coding 3
    Commercial name             : Dolby Digital
    Codec ID                    : A_AC3
    Duration                    : 2 h 32 min
    Bit rate mode               : Constant
    Bit rate                    : 448 kb/s
    Channel(s)                  : 6 channels
    Channel layout              : L R C LFE Ls Rs
    Sampling rate               : 48.0 kHz
    Frame rate                  : 31.250 FPS (1536 SPF)
    Compression mode            : Lossy
    Stream size                 : 489 MiB (5%)
    Title                       : Español Latino [CinemaniaHDD]
    Language                    : Spanish
    Service kind                : Complete Main
    Default                     : Yes
    Forced                      : No

    Audio #2
    ID                          : 3
    Format                      : E-AC-3 JOC
    Format/Info                 : Enhanced AC-3 with Joint Object Coding
    Commercial name             : Dolby Digital Plus with Dolby Atmos
    Codec ID                    : A_EAC3
    Duration                    : 2 h 32 min
    Bit rate mode               : Constant
    Bit rate                    : 768 kb/s
    Channel(s)                  : 6 channels
    Channel layout              : L R C LFE Ls Rs
    Sampling rate               : 48.0 kHz
    Frame rate                  : 31.250 FPS (1536 SPF)
    Compression mode            : Lossy
    Stream size                 : 839 MiB (9%)
    Title                       : Ingles [CinemaniaHDD]
    Language                    : English
    Service kind                : Complete Main
    Default                     : No
    Forced                      : No
    Complexity index            : 16
    Number of dynamic objects   : 15
    Bed channel count           : 1 channel
    Bed channel configuration   : LFE

    Text #1
    ID                          : 4
    Format                      : UTF-8
    Codec ID                    : S_TEXT/UTF8
    Codec ID/Info               : UTF-8 Plain Text
    Duration                    : 2 h 22 min
    Bit rate                    : 0 b/s
    Count of elements           : 20
    Stream size                 : 659 Bytes (0%)
    Title                       : Forzados-SRT [CinemaniaHDD]
    Language                    : Spanish
    Default                     : Yes
    Forced                      : No

    Text #2
    ID                          : 5
    Format                      : UTF-8
    Codec ID                    : S_TEXT/UTF8
    Codec ID/Info               : UTF-8 Plain Text
    Duration                    : 2 h 22 min
    Bit rate                    : 47 b/s
    Count of elements           : 1691
    Stream size                 : 49.2 KiB (0%)
    Title                       : Español-SRT [CinemaniaHDD]
    Language                    : Spanish
    Default                     : No
    Forced                      : No

    Text #3
    ID                          : 6
    Format                      : UTF-8
    Codec ID                    : S_TEXT/UTF8
    Codec ID/Info               : UTF-8 Plain Text
    Duration                    : 2 h 28 min
    Bit rate                    : 55 b/s
    Count of elements           : 2165
    Stream size                 : 60.7 KiB (0%)
    Title                       : Ingles-SRT [CinemaniaHDD]
    Language                    : English
    Default                     : No
    Forced                      : No

  • Peso: 8.76 GiB

Sinopsis

Descargar El último duelo (2021) AMZN WEB-DL 1080p Latino. Ambientada en Francia, en 1386, cuenta el enfrentamiento entre el caballero Jean de Carrouges y el escudero Jacques LeGris , al acusar el primero al segundo de abusar de su esposa, Marguerite de Carrouges. El Rey Carlos VI decide que la mejor forma de solucionar el conflicto es un duelo a muerte. El que venza será el ganador, sin embargo, si lo hace el escudero, la esposa del caballero será quemada como castigo por falsas acusaciones.

Ficha técnica

  • Titulo original: The Last Duel
  • Fecha de lanzamiento: 13-10-2021 (United Kingdom, United States of America)
  • Director: Ridley Scott
  • Género: Acción, Drama, Historia

Video trailer de la película

Enlaces de descarga

Rip de Bluray

Descargar El último duelo (2021) AMZN WEB-DL 1080p Latino




Aportes de DPeliculasHDmega la pass es:dpeliculashdmega.org Aportes de CinemaniaHD la pass es:cinemaniahdd.com
Guardado en : Acción , Drama , Historia

Películas relacionadas

descargar El último duelo (2021) AMZN WEB-DL 1080p Latino WEBDL 1080p gratis, El último duelo (2021) AMZN WEB-DL 1080p Latino WEBDL mega 1 link, El último duelo (2021) AMZN WEB-DL 1080p Latino WEBDL pelicula completa, descargar El último duelo (2021) AMZN WEB-DL 1080p Latino WEBDL gratis en mega.

El último duelo (2021) AMZN WEB-DL 1080p Latino pelicula full hd, El último duelo (2021) AMZN WEB-DL 1080p Latino mega latino, El último duelo (2021) AMZN WEB-DL 1080p Latino 4k latino, El último duelo (2021) AMZN WEB-DL 1080p Latino pelicula completa, El último duelo (2021) AMZN WEB-DL 1080p Latino descargar gratis, descargar El último duelo (2021) AMZN WEB-DL 1080p Latino pelicula latino, El último duelo (2021) AMZN WEB-DL 1080p Latino 1 link mega, El último duelo (2021) AMZN WEB-DL 1080p Latino 1 link google drive, El último duelo (2021) AMZN WEB-DL 1080p Latino hd 1080p latino.
Comentarios 0