×

¿Problemas para descargar con Mozilla, EDGE? Deshabilita la opción "Abrir vinculos en una pestaña nueva" tal como lo muestra ésta imagen.

El Tiempo Es Ahora (2022) AMZN Web-DL 1080p Latino

506 vistas

Información de El Tiempo Es Ahora (2022) AMZN Web-DL 1080p Latino

Datos de la película

  • Calidad: WEBDL
  • Audio: Español Latino AC3 5.1 WEB-DL - Ingles AC3 5.1 WEB-DL
  • Subtitulos: Español Latino SRT- FORZADOS SRT
  • Resolución: 1920x800p
  • Formato: MKV
  • Codec: H.264
  • Encoder: Melkor
  • Mediainfo: Clic para Mostrar Datos Ver
  • El Tiempo Es Ahora (2022) AMZN WebDL 1080p Latino.mkv
    Format                      : Matroska
    Format version              : Version 4
    File size                   : 8.09 GiB
    Duration                    : 1 h 48 min
    Overall bit rate            : 10.7 Mb/s
    Movie name                  : Time Is Up (2022) CinemaniaHDD.Net
    Encoded date                : UTC 2022-05-26 16:27:23
    Writing application         : mkvmerge v56.1.0 ('My Friend') 64-bit
    Writing library             : libebml v1.4.2 + libmatroska v1.6.4
    Attachments                 : CINEMANIAHD.png

    Video
    ID                          : 1
    Format                      : AVC
    Format/Info                 : Advanced Video Codec
    Format profile              : High@L4
    Format settings             : CABAC / 4 Ref Frames
    Format settings, CABAC      : Yes
    Format settings, Reference  : 4 frames
    Codec ID                    : V_MPEG4/ISO/AVC
    Duration                    : 1 h 48 min
    Bit rate mode               : Constant
    Bit rate                    : 8 784 kb/s
    Nominal bit rate            : 10 000 kb/s
    Width                       : 1 920 pixels
    Height                      : 800 pixels
    Display aspect ratio        : 2.40:1
    Frame rate mode             : Constant
    Frame rate                  : 23.976 (24000/1001) FPS
    Color space                 : YUV
    Chroma subsampling          : 4:2:0
    Bit depth                   : 8 bits
    Scan type                   : Progressive
    Bits/(Pixel*Frame)          : 0.239
    Stream size                 : 6.64 GiB (82%)
    Title                       : Web HD1080p [CinemaniaHDD]
    Default                     : Yes
    Forced                      : Yes
    Color range                 : Limited
    Color primaries             : BT.709
    Transfer characteristics    : BT.709
    Matrix coefficients         : BT.709

    Audio #1
    ID                          : 2
    Format                      : AC-3
    Format/Info                 : Audio Coding 3
    Commercial name             : Dolby Digital
    Codec ID                    : A_AC3
    Duration                    : 1 h 48 min
    Bit rate mode               : Constant
    Bit rate                    : 640 kb/s
    Channel(s)                  : 6 channels
    Channel layout              : L R C LFE Ls Rs
    Sampling rate               : 48.0 kHz
    Frame rate                  : 31.250 FPS (1536 SPF)
    Compression mode            : Lossy
    Stream size                 : 495 MiB (6%)
    Title                       : Español Latino AC3 [CinemaniaHDD]
    Language                    : Spanish
    Service kind                : Complete Main
    Default                     : Yes
    Forced                      : Yes

    Audio #2
    ID                          : 3
    Format                      : E-AC-3
    Format/Info                 : Enhanced AC-3
    Commercial name             : Dolby Digital Plus
    Codec ID                    : A_EAC3
    Duration                    : 1 h 48 min
    Bit rate mode               : Constant
    Bit rate                    : 640 kb/s
    Channel(s)                  : 6 channels
    Channel layout              : L R C LFE Ls Rs
    Sampling rate               : 48.0 kHz
    Frame rate                  : 31.250 FPS (1536 SPF)
    Compression mode            : Lossy
    Stream size                 : 495 MiB (6%)
    Title                       : Ingles [CinemaniaHDD]
    Language                    : English
    Service kind                : Complete Main
    Default                     : No
    Forced                      : No

    Audio #3
    ID                          : 4
    Format                      : E-AC-3
    Format/Info                 : Enhanced AC-3
    Commercial name             : Dolby Digital Plus
    Codec ID                    : A_EAC3
    Duration                    : 1 h 48 min
    Bit rate mode               : Constant
    Bit rate                    : 640 kb/s
    Channel(s)                  : 6 channels
    Channel layout              : L R C LFE Ls Rs
    Sampling rate               : 48.0 kHz
    Frame rate                  : 31.250 FPS (1536 SPF)
    Compression mode            : Lossy
    Stream size                 : 495 MiB (6%)
    Title                       : Español Latino EAC3 [CinemaniaHDD]
    Language                    : Spanish
    Service kind                : Complete Main
    Default                     : No
    Forced                      : No

    Text #1
    ID                          : 5
    Format                      : UTF-8
    Codec ID                    : S_TEXT/UTF8
    Codec ID/Info               : UTF-8 Plain Text
    Duration                    : 54 min 32 s
    Bit rate                    : 1 b/s
    Count of elements           : 14
    Stream size                 : 610 Bytes (0%)
    Title                       : Forzados-SRT [CinemaniaHDD]
    Language                    : Spanish
    Default                     : Yes
    Forced                      : Yes

    Text #2
    ID                          : 6
    Format                      : UTF-8
    Codec ID                    : S_TEXT/UTF8
    Codec ID/Info               : UTF-8 Plain Text
    Duration                    : 1 h 40 min
    Bit rate                    : 36 b/s
    Count of elements           : 989
    Stream size                 : 26.9 KiB (0%)
    Title                       : Español-SRT [CinemaniaHDD]
    Language                    : Spanish
    Default                     : No
    Forced                      : No

    Text #3
    ID                          : 7
    Format                      : UTF-8
    Codec ID                    : S_TEXT/UTF8
    Codec ID/Info               : UTF-8 Plain Text
    Duration                    : 1 h 39 min
    Bit rate                    : 42 b/s
    Count of elements           : 969
    Stream size                 : 30.9 KiB (0%)
    Title                       : Ingles-SRT [CinemaniaHDD]
    Language                    : English
    Default                     : No
    Forced                      : No

  • Peso: 8.09 GiB

Sinopsis

Descargar El Tiempo Es Ahora (2022) AMZN Web-DL 1080p Latino. Un accidente obliga a Vivien y Royan a reajustar sus vidas poco a poco y a empezar a vivir en un presente que quizá se muestre más estimulante que todo lo predefinido.

Ficha técnica

Video trailer de la película

Enlaces de descarga

Rip de Bluray

Descargar El Tiempo Es Ahora (2022) AMZN Web-DL 1080p Latino




Aportes de DPeliculasHDmega la pass es:dpeliculashdmega.org Aportes de CinemaniaHD la pass es:cinemaniahdd.com
Guardado en : Drama , Romance

Películas relacionadas

descargar El Tiempo Es Ahora (2022) AMZN Web-DL 1080p Latino WEBDL 1080p gratis, El Tiempo Es Ahora (2022) AMZN Web-DL 1080p Latino WEBDL mega 1 link, El Tiempo Es Ahora (2022) AMZN Web-DL 1080p Latino WEBDL pelicula completa, descargar El Tiempo Es Ahora (2022) AMZN Web-DL 1080p Latino WEBDL gratis en mega.

El Tiempo Es Ahora (2022) AMZN Web-DL 1080p Latino pelicula full hd, El Tiempo Es Ahora (2022) AMZN Web-DL 1080p Latino mega latino, El Tiempo Es Ahora (2022) AMZN Web-DL 1080p Latino 4k latino, El Tiempo Es Ahora (2022) AMZN Web-DL 1080p Latino pelicula completa, El Tiempo Es Ahora (2022) AMZN Web-DL 1080p Latino descargar gratis, descargar El Tiempo Es Ahora (2022) AMZN Web-DL 1080p Latino pelicula latino, El Tiempo Es Ahora (2022) AMZN Web-DL 1080p Latino 1 link mega, El Tiempo Es Ahora (2022) AMZN Web-DL 1080p Latino 1 link google drive, El Tiempo Es Ahora (2022) AMZN Web-DL 1080p Latino hd 1080p latino.
Comentarios 0