×

¿Problemas para descargar con Mozilla, EDGE? Deshabilita la opción "Abrir vinculos en una pestaña nueva" tal como lo muestra ésta imagen.

El tiempo del Armagedón (2022) WEB-DL 1080p Latino

14 vistas

Información de El tiempo del Armagedón (2022) WEB-DL 1080p Latino

Datos de la película

  • Calidad: WEBDL
  • Audio: Español Latino AC3 5.1 WEB-DL - Ingles AC3 5.1 WEB-DL
  • Subtitulos: Español Latino SRT- FORZADOS SRT
  • Resolución: 1920x802p
  • Formato: MKV
  • Codec: H.264
  • Encoder: Melkor
  • Mediainfo: Clic para Mostrar Datos Ver
  • El tiempo del Armagedón (2022) WebDL 1080p Latino.mkv
    Format                      : Matroska
    Format version              : Version 4
    File size                   : 6.34 GiB
    Duration                    : 1 h 54 min
    Overall bit rate            : 7 913 kb/s
    Movie name                  : Armageddon Time (2022) CinemaniaHDD.Net
    Encoded date                : UTC 2022-11-23 06:03:33
    Writing application         : mkvmerge v56.1.0 ('My Friend') 64-bit
    Writing library             : libebml v1.4.2 + libmatroska v1.6.4
    Attachments                 : CINEMANIAHD.png

    Video
    ID                          : 1
    Format                      : AVC
    Format/Info                 : Advanced Video Codec
    Format profile              : High@L4
    Format settings             : CABAC / 5 Ref Frames
    Format settings, CABAC      : Yes
    Format settings, Reference  : 5 frames
    Codec ID                    : V_MPEG4/ISO/AVC
    Duration                    : 1 h 54 min
    Bit rate                    : 6 701 kb/s
    Width                       : 1 920 pixels
    Height                      : 802 pixels
    Display aspect ratio        : 2.40:1
    Frame rate mode             : Constant
    Frame rate                  : 23.976 (24000/1001) FPS
    Color space                 : YUV
    Chroma subsampling          : 4:2:0
    Bit depth                   : 8 bits
    Scan type                   : Progressive
    Bits/(Pixel*Frame)          : 0.182
    Stream size                 : 5.37 GiB (85%)
    Title                       : Web HD1080p [CinemaniaHDD]
    Default                     : Yes
    Forced                      : Yes
    Color range                 : Limited
    Color primaries             : BT.709
    Transfer characteristics    : BT.709
    Matrix coefficients         : BT.709

    Audio #1
    ID                          : 2
    Format                      : AC-3
    Format/Info                 : Audio Coding 3
    Commercial name             : Dolby Digital
    Codec ID                    : A_AC3
    Duration                    : 1 h 54 min
    Bit rate mode               : Constant
    Bit rate                    : 448 kb/s
    Channel(s)                  : 6 channels
    Channel layout              : L R C LFE Ls Rs
    Sampling rate               : 48.0 kHz
    Frame rate                  : 31.250 FPS (1536 SPF)
    Compression mode            : Lossy
    Stream size                 : 367 MiB (6%)
    Title                       : Español Latino [CinemaniaHDD]
    Language                    : Spanish
    Service kind                : Complete Main
    Default                     : Yes
    Forced                      : Yes

    Audio #2
    ID                          : 3
    Format                      : E-AC-3 JOC
    Format/Info                 : Enhanced AC-3 with Joint Object Coding
    Commercial name             : Dolby Digital Plus with Dolby Atmos
    Codec ID                    : A_EAC3
    Duration                    : 1 h 54 min
    Bit rate mode               : Constant
    Bit rate                    : 768 kb/s
    Channel(s)                  : 6 channels
    Channel layout              : L R C LFE Ls Rs
    Sampling rate               : 48.0 kHz
    Frame rate                  : 31.250 FPS (1536 SPF)
    Compression mode            : Lossy
    Stream size                 : 630 MiB (10%)
    Title                       : Ingles [CinemaniaHDD]
    Language                    : English
    Service kind                : Complete Main
    Default                     : No
    Forced                      : No
    Complexity index            : 16
    Number of dynamic objects   : 15
    Bed channel count           : 1 channel
    Bed channel configuration   : LFE

    Text #1
    ID                          : 4
    Format                      : UTF-8
    Codec ID                    : S_TEXT/UTF8
    Codec ID/Info               : UTF-8 Plain Text
    Duration                    : 1 h 52 min
    Bit rate                    : 0 b/s
    Count of elements           : 18
    Stream size                 : 691 Bytes (0%)
    Title                       : Forzados-SRT [CinemaniaHDD]
    Language                    : Spanish
    Default                     : Yes
    Forced                      : Yes

    Text #2
    ID                          : 5
    Format                      : UTF-8
    Codec ID                    : S_TEXT/UTF8
    Codec ID/Info               : UTF-8 Plain Text
    Duration                    : 1 h 53 min
    Bit rate                    : 63 b/s
    Count of elements           : 1831
    Stream size                 : 52.7 KiB (0%)
    Title                       : Español-SRT [CinemaniaHDD]
    Language                    : Spanish
    Default                     : No
    Forced                      : No

    Text #3
    ID                          : 6
    Format                      : UTF-8
    Codec ID                    : S_TEXT/UTF8
    Codec ID/Info               : UTF-8 Plain Text
    Duration                    : 1 h 53 min
    Bit rate                    : 79 b/s
    Count of elements           : 2213
    Stream size                 : 66.3 KiB (0%)
    Title                       : Ingles-SRT [CinemaniaHDD]
    Language                    : English
    Default                     : No
    Forced                      : No

  • Peso: 6.34 GiB

Sinopsis

Descargar El tiempo del Armagedón (2022) WEB-DL 1080p Latino. Paul Graff lleva una infancia tranquila en los suburbios neoyorquinos. Junto a Johnny, un compañero de clase excluido por su color de piel, se dedican a hacer travesuras. Paul cree contar con la protección de su madre, presidenta de la asociación de madres y padres de alumnos, y de su abuelo, con el que mantiene una muy buena relación. Pero, tras un incidente, es enviado a una escuela privada, cuyo consejo de administración cuenta con el padre de Donald Trump como uno de sus miembros. El elitismo y el racismo sin complejos con el que se encuentra cambiarán drásticamente su mundo.

Ficha técnica

Video trailer de la película

Enlaces de descarga

Rip de Bluray

Descargar El tiempo del Armagedón (2022) WEB-DL 1080p Latino




Aportes de DPeliculasHDmega la pass es:dpeliculashdmega.org Aportes de CinemaniaHD la pass es:cinemaniahdd.com
Guardado en : Drama

Películas relacionadas

descargar El tiempo del Armagedón (2022) WEB-DL 1080p Latino WEBDL 1080p gratis, El tiempo del Armagedón (2022) WEB-DL 1080p Latino WEBDL mega 1 link, El tiempo del Armagedón (2022) WEB-DL 1080p Latino WEBDL pelicula completa, descargar El tiempo del Armagedón (2022) WEB-DL 1080p Latino WEBDL gratis en mega.

El tiempo del Armagedón (2022) WEB-DL 1080p Latino pelicula full hd, El tiempo del Armagedón (2022) WEB-DL 1080p Latino mega latino, El tiempo del Armagedón (2022) WEB-DL 1080p Latino 4k latino, El tiempo del Armagedón (2022) WEB-DL 1080p Latino pelicula completa, El tiempo del Armagedón (2022) WEB-DL 1080p Latino descargar gratis, descargar El tiempo del Armagedón (2022) WEB-DL 1080p Latino pelicula latino, El tiempo del Armagedón (2022) WEB-DL 1080p Latino 1 link mega, El tiempo del Armagedón (2022) WEB-DL 1080p Latino 1 link google drive, El tiempo del Armagedón (2022) WEB-DL 1080p Latino hd 1080p latino.
Comentarios 0