×

¿Problemas para descargar con Mozilla, EDGE? Deshabilita la opción "Abrir vinculos en una pestaña nueva" tal como lo muestra ésta imagen.

El Sonido Del Metal (2020) AMZN Web-DL 1080p Latino

264 vistas

Información de El Sonido Del Metal (2020) AMZN Web-DL 1080p Latino

Datos de la película

  • Calidad: WEBDL
  • Audio: Español Latino AC3 5.1 AMAZON - Ingles AC3 5.1 AMAZON
  • Subtitulos: Español Latino SRT- FORZADOS SRT
  • Resolución: 1920x800p
  • Formato: MKV
  • Codec: H.264
  • Encoder: Melkor
  • Mediainfo: Clic para Mostrar Datos Ver
  • El Sonido Del Metal (2020) AMZN Web-DL 1080p Latino.mkv
    Format                      : Matroska
    Format version              : Version 4
    File size                   : 11.7 GiB
    Duration                    : 2 h 0 min
    Overall bit rate            : 13.9 Mb/s
    Movie name                  : Sound Of Metal (2020) CinemaniaHDD.Net
    Encoded date                : UTC 2021-01-07 05:12:25
    Writing application         : mkvmerge v51.0.0 ('I Wish') 64-bit
    Writing library             : libebml v1.4.0 + libmatroska v1.6.2
    Attachments                 : CINEMANIAHD.png

    Video
    ID                          : 1
    Format                      : AVC
    Format/Info                 : Advanced Video Codec
    Format profile              : High@L4
    Format settings             : CABAC / 4 Ref Frames
    Format settings, CABAC      : Yes
    Format settings, Reference  : 4 frames
    Codec ID                    : V_MPEG4/ISO/AVC
    Duration                    : 2 h 0 min
    Bit rate                    : 12.6 Mb/s
    Width                       : 1 920 pixels
    Height                      : 800 pixels
    Display aspect ratio        : 2.40:1
    Frame rate mode             : Constant
    Frame rate                  : 23.976 (24000/1001) FPS
    Color space                 : YUV
    Chroma subsampling          : 4:2:0
    Bit depth                   : 8 bits
    Scan type                   : Progressive
    Bits/(Pixel*Frame)          : 0.342
    Stream size                 : 10.6 GiB (91%)
    Title                       : WEB HD1080p [CinemaniaHDD]
    Default                     : Yes
    Forced                      : No
    Color range                 : Limited
    Color primaries             : BT.709
    Transfer characteristics    : BT.709
    Matrix coefficients         : BT.709

    Audio #1
    ID                          : 2
    Format                      : AC-3
    Format/Info                 : Audio Coding 3
    Commercial name             : Dolby Digital
    Codec ID                    : A_AC3
    Duration                    : 2 h 0 min
    Bit rate mode               : Constant
    Bit rate                    : 640 kb/s
    Channel(s)                  : 6 channels
    Channel layout              : L R C LFE Ls Rs
    Sampling rate               : 48.0 kHz
    Frame rate                  : 31.250 FPS (1536 SPF)
    Compression mode            : Lossy
    Stream size                 : 553 MiB (5%)
    Title                       : Español Latino [CinemaniaHDD]
    Language                    : Spanish
    Service kind                : Complete Main
    Default                     : Yes
    Forced                      : No

    Audio #2
    ID                          : 3
    Format                      : E-AC-3
    Format/Info                 : Enhanced AC-3
    Commercial name             : Dolby Digital Plus
    Codec ID                    : A_EAC3
    Duration                    : 2 h 0 min
    Bit rate mode               : Constant
    Bit rate                    : 640 kb/s
    Channel(s)                  : 6 channels
    Channel layout              : L R C LFE Ls Rs
    Sampling rate               : 48.0 kHz
    Frame rate                  : 31.250 FPS (1536 SPF)
    Compression mode            : Lossy
    Stream size                 : 553 MiB (5%)
    Title                       : Ingles [CinemaniaHDD]
    Language                    : English
    Service kind                : Complete Main
    Default                     : No
    Forced                      : No

    Text #1
    ID                          : 4
    Format                      : UTF-8
    Codec ID                    : S_TEXT/UTF8
    Codec ID/Info               : UTF-8 Plain Text
    Duration                    : 1 h 56 min
    Bit rate                    : 2 b/s
    Count of elements           : 84
    Stream size                 : 2.13 KiB (0%)
    Title                       : Forzados-SRT [CinemaniaHDD]
    Language                    : Spanish
    Default                     : Yes
    Forced                      : No

    Text #2
    ID                          : 5
    Format                      : UTF-8
    Codec ID                    : S_TEXT/UTF8
    Codec ID/Info               : UTF-8 Plain Text
    Duration                    : 1 h 59 min
    Bit rate                    : 31 b/s
    Count of elements           : 952
    Stream size                 : 27.3 KiB (0%)
    Title                       : Español-SRT [CinemaniaHDD]
    Language                    : Spanish
    Default                     : No
    Forced                      : No

    Text #3
    ID                          : 6
    Format                      : UTF-8
    Codec ID                    : S_TEXT/UTF8
    Codec ID/Info               : UTF-8 Plain Text
    Duration                    : 2 h 0 min
    Bit rate                    : 39 b/s
    Count of elements           : 1476
    Stream size                 : 34.7 KiB (0%)
    Title                       : Ingles-SRT [CinemaniaHDD]
    Language                    : English
    Default                     : No
    Forced                      : No

    Menu
    00:00:00.000                : en:Amazon Original
    00:00:21.000                : en:Opening Credits
    00:00:54.000                : en:Metal show
    00:04:05.000                : en:Title Sequence
    00:04:12.000                : en:Morning routines
    00:08:19.000                : en:Life on the road
    00:11:12.000                : en:Something's wrong
    00:18:15.000                : en:Ruben tells Lou the truth
    00:25:49.000                : en:Finding a care facility
    00:35:31.000                : en:Ruben hits a breaking point
    00:42:07.000                : en:Life within the deaf community
    00:52:38.000                : en:Missing Lou
    00:53:56.000                : en:Joe has a new assignment for Ruben
    00:57:14.000                : en:An exercise in sitting
    00:59:41.000                : en:Bit by bit
    01:04:31.000                : en:Making friends and progress
    01:07:42.000                : en:An offer for the future
    01:10:34.000                : en:Breaking trust
    01:17:27.000                : en:Letting go
    01:20:38.000                : en:Surgery
    01:21:44.000                : en:Moments of stillness
    01:28:44.000                : en:Adjustment period
    01:34:15.000                : en:Ruben arrives in Paris
    01:43:08.000                : en:Party time
    01:48:06.000                : en:Revelations
    01:53:44.000                : en:Moments of stillness
    01:56:14.000                : en:End Credits

  • Peso: 11.7 GiB

Sinopsis

Descargar El Sonido Del Metal (2020) AMZN Web-DL 1080p Latino. El baterista de metal Ruben comienza a perder la audición. Cuando un médico le dice que su condición empeorará, cree que su carrera y su vida han terminado. Su novia Lou lleva al ex adicto a un centro de rehabilitación para sordos con la esperanza de que esto evite una recaída y lo ayude a adaptarse a su nueva vida. Después de ser bienvenido y aceptado tal como es, Ruben debe elegir entre su nueva normalidad y la vida que una vez conoció.

Ficha técnica

Video trailer de la película

Enlaces de descarga

Rip de Bluray

Descargar El Sonido Del Metal (2020) AMZN Web-DL 1080p Latino




Aportes de DPeliculasHDmega la pass es:dpeliculashdmega.org Aportes de CinemaniaHD la pass es:cinemaniahdd.com
Guardado en : Drama , Música

Películas relacionadas

  • Blonde (2022) NF WEB-DL 1080p Latino

    Blonde (2022) NF WEB-DL 1080p Latino

    2022
    Blonde (2022) NF WEB-DL 1080p Latino

    2h 46m 2022

    Descargar Blonde (2022) NF WEB-DL 1080p Latino. Basada en el bestseller de la cinco veces finalista al...

    Director: Kristin Bree Calabrese

    Género: Drama

    Actores: Xavier Samuel

  • Infiniti (2022) Primera Temporada WEB-DL 1080p Latino

    Infiniti (2022) Primera Temporada WEB-DL 1080p Latino

    2022
    Infiniti (2022) Primera Temporada WEB-DL 1080p Latino

    0h 52m 2022

    La ISS, la Estación Espacial Internacional se ha quedado en silencio. La tripulación está en peligro....

    Director: Stéphane Pannetier

    Género: Drama

    Actores: Vlad Ivanov

  • Athena (2022) NF WEB-DL 1080p Latino

    Athena (2022) NF WEB-DL 1080p Latino

    2022
    Athena (2022) NF WEB-DL 1080p Latino

    1h 37m 2022

    Descargar Athena (2022) NF WEB-DL 1080p Latino. Horas después de la trágica muerte de su hermano menor...

    Director: Romain Gavras

    Género: Acción

    Actores: Tarek Haddaji

descargar El Sonido Del Metal (2020) AMZN Web-DL 1080p Latino WEBDL 1080p gratis, El Sonido Del Metal (2020) AMZN Web-DL 1080p Latino WEBDL mega 1 link, El Sonido Del Metal (2020) AMZN Web-DL 1080p Latino WEBDL pelicula completa, descargar El Sonido Del Metal (2020) AMZN Web-DL 1080p Latino WEBDL gratis en mega.

El Sonido Del Metal (2020) AMZN Web-DL 1080p Latino pelicula full hd, El Sonido Del Metal (2020) AMZN Web-DL 1080p Latino mega latino, El Sonido Del Metal (2020) AMZN Web-DL 1080p Latino 4k latino, El Sonido Del Metal (2020) AMZN Web-DL 1080p Latino pelicula completa, El Sonido Del Metal (2020) AMZN Web-DL 1080p Latino descargar gratis, descargar El Sonido Del Metal (2020) AMZN Web-DL 1080p Latino pelicula latino, El Sonido Del Metal (2020) AMZN Web-DL 1080p Latino 1 link mega, El Sonido Del Metal (2020) AMZN Web-DL 1080p Latino 1 link google drive, El Sonido Del Metal (2020) AMZN Web-DL 1080p Latino hd 1080p latino.
Comentarios 0