×

¿Problemas para descargar con Mozilla, EDGE? Deshabilita la opción "Abrir vinculos en una pestaña nueva" tal como lo muestra ésta imagen.

El Sonido Del Metal (2020) REMUX 1080p Latino

153 vistas

Información de El Sonido Del Metal (2020) REMUX 1080p Latino

Datos de la película

  • Calidad: Full 1080p
  • Audio: Se especifica abajo de la Sinopsis
  • Subtitulos: Español Latino SRT- FORZADOS SRT
  • Resolución: 1920x1080p
  • Formato: MKV
  • Codec: H.264
  • Encoder: Melkor
  • Mediainfo: Clic para Mostrar Datos Ver
  • El Sonido Del Metal (2019) REMUX 1080p Latino.mkv
    Format                      : Matroska
    Format version              : Version 4
    File size                   : 20.0 GiB
    Duration                    : 2 h 0 min
    Overall bit rate mode       : Variable
    Overall bit rate            : 23.7 Mb/s
    Movie name                  : Sound of Metal (2019) CinemaniaHDD.Net
    Encoded date                : UTC 2021-05-26 07:17:52
    Writing application         : mkvmerge v56.1.0 ('My Friend') 64-bit
    Writing library             : libebml v1.4.2 + libmatroska v1.6.4
    Attachments                 : CINEMANIAHD.png

    Video
    ID                          : 1
    Format                      : AVC
    Format/Info                 : Advanced Video Codec
    Format profile              : High@L4.1
    Format settings             : CABAC / 4 Ref Frames
    Format settings, CABAC      : Yes
    Format settings, Reference  : 4 frames
    Codec ID                    : V_MPEG4/ISO/AVC
    Duration                    : 2 h 0 min
    Bit rate mode               : Variable
    Bit rate                    : 20.5 Mb/s
    Maximum bit rate            : 38.0 Mb/s
    Width                       : 1 920 pixels
    Height                      : 1 080 pixels
    Display aspect ratio        : 16:9
    Frame rate mode             : Constant
    Frame rate                  : 23.976 (24000/1001) FPS
    Color space                 : YUV
    Chroma subsampling          : 4:2:0
    Bit depth                   : 8 bits
    Scan type                   : Progressive
    Bits/(Pixel*Frame)          : 0.412
    Stream size                 : 17.3 GiB (86%)
    Title                       : REMUX HD1080p [CinemaniaHDD]
    Language                    : English
    Default                     : Yes
    Forced                      : Yes

    Audio #1
    ID                          : 2
    Format                      : AC-3
    Format/Info                 : Audio Coding 3
    Commercial name             : Dolby Digital
    Codec ID                    : A_AC3
    Duration                    : 2 h 0 min
    Bit rate mode               : Constant
    Bit rate                    : 640 kb/s
    Channel(s)                  : 6 channels
    Channel layout              : L R C LFE Ls Rs
    Sampling rate               : 48.0 kHz
    Frame rate                  : 31.250 FPS (1536 SPF)
    Compression mode            : Lossy
    Stream size                 : 552 MiB (3%)
    Title                       : Español Latino [CinemaniaHDD]
    Language                    : Spanish
    Service kind                : Complete Main
    Default                     : Yes
    Forced                      : Yes

    Audio #2
    ID                          : 3
    Format                      : DTS XLL
    Format/Info                 : Digital Theater Systems
    Commercial name             : DTS-HD Master Audio
    Codec ID                    : A_DTS
    Duration                    : 2 h 0 min
    Bit rate mode               : Variable
    Bit rate                    : 1 929 kb/s
    Channel(s)                  : 6 channels
    Channel layout              : C L R Ls Rs LFE
    Sampling rate               : 48.0 kHz
    Frame rate                  : 93.750 FPS (512 SPF)
    Bit depth                   : 16 bits
    Compression mode            : Lossless
    Stream size                 : 1.63 GiB (8%)
    Title                       : Ingles [CinemaniaHDD]
    Language                    : English
    Default                     : No
    Forced                      : No

    Audio #3
    ID                          : 4
    Format                      : E-AC-3
    Format/Info                 : Enhanced AC-3
    Commercial name             : Dolby Digital Plus
    Codec ID                    : A_EAC3
    Duration                    : 2 h 0 min
    Bit rate mode               : Constant
    Bit rate                    : 640 kb/s
    Channel(s)                  : 6 channels
    Channel layout              : L R C LFE Ls Rs
    Sampling rate               : 48.0 kHz
    Frame rate                  : 31.250 FPS (1536 SPF)
    Compression mode            : Lossy
    Delay relative to video     : 13 s 0 ms
    Stream size                 : 551 MiB (3%)
    Title                       : Español Latino EAC3 [CinemaniaHDD]
    Language                    : Spanish
    Service kind                : Complete Main
    Default                     : No
    Forced                      : No

    Text #1
    ID                          : 5
    Format                      : UTF-8
    Codec ID                    : S_TEXT/UTF8
    Codec ID/Info               : UTF-8 Plain Text
    Duration                    : 1 h 56 min
    Bit rate                    : 2 b/s
    Count of elements           : 84
    Stream size                 : 2.13 KiB (0%)
    Title                       : Forzados-SRT [CinemaniaHDD]
    Language                    : Spanish
    Default                     : Yes
    Forced                      : Yes

    Text #2
    ID                          : 6
    Format                      : UTF-8
    Codec ID                    : S_TEXT/UTF8
    Codec ID/Info               : UTF-8 Plain Text
    Duration                    : 1 h 59 min
    Bit rate                    : 31 b/s
    Count of elements           : 952
    Stream size                 : 27.3 KiB (0%)
    Title                       : Español-SRT [CinemaniaHDD]
    Language                    : Spanish
    Default                     : No
    Forced                      : No

    Text #3
    ID                          : 7
    Format                      : UTF-8
    Codec ID                    : S_TEXT/UTF8
    Codec ID/Info               : UTF-8 Plain Text
    Duration                    : 1 h 46 min
    Bit rate                    : 32 b/s
    Count of elements           : 1227
    Stream size                 : 25.2 KiB (0%)
    Title                       : Ingles-SRT [CinemaniaHDD]
    Language                    : English
    Default                     : No
    Forced                      : No

    Menu
    00:00:00.000                : Opening Performance
    00:04:04.244                : Between Gigs
    00:11:04.997                : Diagnosis
    00:18:07.753                : Trauma
    00:24:05.485                : Found a Place
    00:29:04.033                : Interview
    00:35:23.955                : Separation
    00:41:59.975                : Joining the Community
    00:48:23.317                : Learning
    00:53:48.725                : Writing
    00:59:33.778                : New Rhythm
    01:05:03.816                : Future
    01:11:43.007                : Selling
    01:17:19.426                : Surgery
    01:21:36.641                : Violation of Trust
    01:30:56.909                : Getting Adjusted
    01:40:37.698                : Reunited
    01:52:34.456                : Silence
    01:56:06.709                : End Credits

  • Peso: 20.0 GiB

Sinopsis

Descargar El Sonido Del Metal (2020) REMUX 1080p Latino. El baterista de metal Ruben comienza a perder la audición. Cuando un médico le dice que su condición empeorará, cree que su carrera y su vida han terminado. Su novia Lou lleva al ex adicto a un centro de rehabilitación para sordos con la esperanza de que esto evite una recaída y lo ayude a adaptarse a su nueva vida. Después de ser bienvenido y aceptado tal como es, Ruben debe elegir entre su nueva normalidad y la vida que una vez conoció.

Español Latino EAC3 & AC3 5.1 – Ingles DTS-HD 5.1 Bluray

Ficha técnica

Video trailer de la película

Enlaces de descarga

Rip de Bluray

Descargar El Sonido Del Metal (2020) REMUX 1080p Latino




Aportes de DPeliculasHDmega la pass es:dpeliculashdmega.org Aportes de CinemaniaHD la pass es:cinemaniahdd.com
Guardado en : Drama , Música , Remux

Películas relacionadas

descargar El Sonido Del Metal (2020) REMUX 1080p Latino Full 1080p 1080p gratis, El Sonido Del Metal (2020) REMUX 1080p Latino Full 1080p mega 1 link, El Sonido Del Metal (2020) REMUX 1080p Latino Full 1080p pelicula completa, descargar El Sonido Del Metal (2020) REMUX 1080p Latino Full 1080p gratis en mega.

El Sonido Del Metal (2020) REMUX 1080p Latino pelicula full hd, El Sonido Del Metal (2020) REMUX 1080p Latino mega latino, El Sonido Del Metal (2020) REMUX 1080p Latino 4k latino, El Sonido Del Metal (2020) REMUX 1080p Latino pelicula completa, El Sonido Del Metal (2020) REMUX 1080p Latino descargar gratis, descargar El Sonido Del Metal (2020) REMUX 1080p Latino pelicula latino, El Sonido Del Metal (2020) REMUX 1080p Latino 1 link mega, El Sonido Del Metal (2020) REMUX 1080p Latino 1 link google drive, El Sonido Del Metal (2020) REMUX 1080p Latino hd 1080p latino.
Comentarios 0