×

¿Problemas para descargar con Mozilla, EDGE? Deshabilita la opción "Abrir vinculos en una pestaña nueva" tal como lo muestra ésta imagen.

El señor de los anillos Las dos torres (2002) THEATRICAL 4K REMUX HDR Latino – CMHDD

1.112 vistas

Información de El señor de los anillos Las dos torres (2002) THEATRICAL 4K REMUX HDR Latino – CMHDD

Datos de la película

  • Calidad: 4K HDR
  • Audio: Español Latino AC3 5.1 BLURAY - Ingles DTS 5.1 BLURAY
  • Subtitulos: Español Latino SRT- FORZADOS SRT
  • Resolución: 3840x2160p
  • Formato: MKV
  • Codec: H.264
  • Encoder: Dracarys
  • Mediainfo: Clic para Mostrar Datos Ver
  • Format                      : Matroska
    Format version              : Version 4
    File size                   : 75.2 GiB
    Duration                    : 2 h 59 min
    Overall bit rate mode       : Variable
    Overall bit rate            : 60.0 Mb/s
    Movie name                  : El señor de los anillos Las dos torres (2002) THEATRICAL 4K REMUX HDR Latino – CMHDD
    Encoded date                : UTC 2020-12-09 05:08:49
    Writing application         : mkvmerge v51.0.0 ('I Wish') 64-bit
    Writing library             : libebml v1.4.0 + libmatroska v1.6.2

    Video
    ID                          : 1
    Format                      : HEVC
    Format/Info                 : High Efficiency Video Coding
    Format profile              : Main 10@L5.1@High
    HDR format                  : SMPTE ST 2086, HDR10 compatible
    Codec ID                    : V_MPEGH/ISO/HEVC
    Duration                    : 2 h 59 min
    Bit rate                    : 55.7 Mb/s
    Width                       : 3 840 pixels
    Height                      : 2 160 pixels
    Display aspect ratio        : 16:9
    Frame rate mode             : Constant
    Frame rate                  : 23.976 (24000/1001) FPS
    Color space                 : YUV
    Chroma subsampling          : 4:2:0 (Type 2)
    Bit depth                   : 10 bits
    Bits/(Pixel*Frame)          : 0.280
    Stream size                 : 69.8 GiB (93%)
    Default                     : Yes
    Forced                      : No
    Color range                 : Limited
    Color primaries             : BT.2020
    Transfer characteristics    : PQ
    Matrix coefficients         : BT.2020 non-constant
    Mastering display color pri : Display P3
    Mastering display luminance : min: 0.0050 cd/m2, max: 4000 cd/m2
    Maximum Content Light Level : 805 cd/m2
    Maximum Frame-Average Light : 331 cd/m2

    Audio #1
    ID                          : 2
    Format                      : AC-3
    Format/Info                 : Audio Coding 3
    Commercial name             : Dolby Digital
    Codec ID                    : A_AC3
    Duration                    : 2 h 59 min
    Bit rate mode               : Constant
    Bit rate                    : 640 kb/s
    Channel(s)                  : 6 channels
    Channel layout              : L R C LFE Ls Rs
    Sampling rate               : 48.0 kHz
    Frame rate                  : 31.250 FPS (1536 SPF)
    Compression mode            : Lossy
    Stream size                 : 821 MiB (1%)
    Language                    : Spanish
    Service kind                : Complete Main
    Default                     : Yes
    Forced                      : No

    Audio #2
    ID                          : 3
    Format                      : MLP FBA 16-ch
    Format/Info                 : Meridian Lossless Packing FBA with 16-channel presentation
    Commercial name             : Dolby TrueHD with Dolby Atmos
    Codec ID                    : A_TRUEHD
    Duration                    : 2 h 59 min
    Bit rate mode               : Variable
    Bit rate                    : 3 108 kb/s
    Maximum bit rate            : 5 019 kb/s
    Channel(s)                  : 8 channels
    Channel layout              : L R C LFE Ls Rs Lb Rb
    Sampling rate               : 48.0 kHz
    Frame rate                  : 1 200.000 FPS (40 SPF)
    Compression mode            : Lossless
    Stream size                 : 3.90 GiB (5%)
    Language                    : English
    Default                     : No
    Forced                      : No
    Number of dynamic objects   : 11
    Bed channel count           : 1 channel
    Bed channel configuration   : LFE

    Audio #3
    ID                          : 4
    Format                      : AC-3
    Format/Info                 : Audio Coding 3
    Commercial name             : Dolby Digital
    Codec ID                    : A_AC3
    Duration                    : 2 h 59 min
    Bit rate mode               : Constant
    Bit rate                    : 448 kb/s
    Channel(s)                  : 6 channels
    Channel layout              : L R C LFE Ls Rs
    Sampling rate               : 48.0 kHz
    Frame rate                  : 31.250 FPS (1536 SPF)
    Compression mode            : Lossy
    Stream size                 : 575 MiB (1%)
    Language                    : English
    Service kind                : Complete Main
    Default                     : No
    Forced                      : No

    Text #1
    ID                          : 5
    Format                      : PGS
    Muxing mode                 : zlib
    Codec ID                    : S_HDMV/PGS
    Codec ID/Info               : Picture based subtitle format used on BDs/HD-DVDs
    Duration                    : 2 h 58 min
    Bit rate                    : 18.7 kb/s
    Count of elements           : 3228
    Stream size                 : 23.9 MiB (0%)
    Language                    : Spanish
    Default                     : No
    Forced                      : No

    Text #2
    ID                          : 6
    Format                      : UTF-8
    Codec ID                    : S_TEXT/UTF8
    Codec ID/Info               : UTF-8 Plain Text
    Duration                    : 2 h 58 min
    Bit rate                    : 0 b/s
    Count of elements           : 45
    Stream size                 : 1.14 KiB (0%)
    Language                    : Spanish
    Default                     : Yes
    Forced                      : No

    Text #3
    ID                          : 7
    Format                      : UTF-8
    Codec ID                    : S_TEXT/UTF8
    Codec ID/Info               : UTF-8 Plain Text
    Duration                    : 2 h 58 min
    Bit rate                    : 34 b/s
    Count of elements           : 1530
    Stream size                 : 44.7 KiB (0%)
    Language                    : Spanish
    Default                     : No
    Forced                      : No

  • Peso: 75.2 GiB

Sinopsis

La Compañía del Anillo se ha disuelto. El portador del anillo Frodo y su fiel amigo Sam se dirigen hacia Mordor para destruir el Anillo Único y acabar con el poder de Sauron. Mientras, y tras la dura batalla contra los orcos donde cayó Boromir, el hombre Aragorn, el elfo Legolas y el enano Gimli intentan rescatar a los medianos Merry y Pipin, secuestrados por los ogros de Mordor. Por su parte, Saurón y el traidor Sarumán continúan con sus planes en Mordor, en espera de la guerra contra las razas libres de la Tierra Media.

Ficha técnica

  • Titulo original: The Lord of the Rings: The Two Towers
  • Fecha de lanzamiento: 18-12-2002 (New Zealand, United States of America)
  • Director: Peter Jackson
  • Género: Acción, Aventura, Fantasía

Video trailer de la película

Enlaces de descarga

Rip de Bluray

Descargar El señor de los anillos Las dos torres (2002) THEATRICAL 4K REMUX HDR Latino – CMHDD


Aportes de DPeliculasHDmega la pass es:dpeliculashdmega.org Aportes de CinemaniaHD la pass es:cinemaniahdd.com
Guardado en : Acción , Aventura , Fantasía

Películas relacionadas

descargar El señor de los anillos Las dos torres (2002) THEATRICAL 4K REMUX HDR Latino – CMHDD 4K HDR 1080p gratis, El señor de los anillos Las dos torres (2002) THEATRICAL 4K REMUX HDR Latino – CMHDD 4K HDR mega 1 link, El señor de los anillos Las dos torres (2002) THEATRICAL 4K REMUX HDR Latino – CMHDD 4K HDR pelicula completa, descargar El señor de los anillos Las dos torres (2002) THEATRICAL 4K REMUX HDR Latino – CMHDD 4K HDR gratis en mega.

El señor de los anillos Las dos torres (2002) THEATRICAL 4K REMUX HDR Latino – CMHDD pelicula full hd, El señor de los anillos Las dos torres (2002) THEATRICAL 4K REMUX HDR Latino – CMHDD mega latino, El señor de los anillos Las dos torres (2002) THEATRICAL 4K REMUX HDR Latino – CMHDD 4k latino, El señor de los anillos Las dos torres (2002) THEATRICAL 4K REMUX HDR Latino – CMHDD pelicula completa, El señor de los anillos Las dos torres (2002) THEATRICAL 4K REMUX HDR Latino – CMHDD descargar gratis, descargar El señor de los anillos Las dos torres (2002) THEATRICAL 4K REMUX HDR Latino – CMHDD pelicula latino, El señor de los anillos Las dos torres (2002) THEATRICAL 4K REMUX HDR Latino – CMHDD 1 link mega, El señor de los anillos Las dos torres (2002) THEATRICAL 4K REMUX HDR Latino – CMHDD 1 link google drive, El señor de los anillos Las dos torres (2002) THEATRICAL 4K REMUX HDR Latino – CMHDD hd 1080p latino.
Comentarios 2
  • carlos lopez camargo - 06 febrero, 2021

    HOLA , disculpa podrías colgar El señor de los anillos Las dos torres (2002) THEATRICAL EXTENDED 4K REMUX HDR Latino,MUCHAS GRACIAS.

    • Dracarys - 06 febrero, 2021

      Solo VIP