×

¿Problemas para descargar con Mozilla, EDGE? Deshabilita la opción "Abrir vinculos en una pestaña nueva" tal como lo muestra ésta imagen.

El señor de los anillos Las dos torres (2002) EXTENDED HD 1080p Latino – CMHDD

809 vistas

Información de El señor de los anillos Las dos torres (2002) EXTENDED HD 1080p Latino – CMHDD

Datos de la película

  • Calidad: 1080p
  • Audio: Se especifica abajo de la Sinopsis
  • Subtitulos: Español Latino SRT- FORZADOS SRT
  • Resolución: 1908x798p
  • Formato: MKV
  • Codec: H.264
  • Encoder: Dracarys
  • Mediainfo: Clic para Mostrar Datos Ver
  • Format                      : Matroska
    Format version              : Version 4
    File size                   : 7.83 GiB
    Duration                    : 3 h 55 min
    Overall bit rate            : 4 761 kb/s
    Movie name                  : El señor de los anillos Las dos torres (2002) EXTENDED HD 1080p Latino - CMHDD
    Encoded date                : UTC 2020-12-12 19:07:38
    Writing application         : mkvmerge v51.0.0 ('I Wish') 64-bit
    Writing library             : libebml v1.4.0 + libmatroska v1.6.2

    Video
    ID                          : 1
    Format                      : AVC
    Format/Info                 : Advanced Video Codec
    Format profile              : High@L4.1
    Format settings             : CABAC / 5 Ref Frames
    Format settings, CABAC      : Yes
    Format settings, Reference  : 5 frames
    Codec ID                    : V_MPEG4/ISO/AVC
    Duration                    : 3 h 55 min
    Bit rate                    : 3 500 kb/s
    Width                       : 1 908 pixels
    Height                      : 798 pixels
    Display aspect ratio        : 2.40:1
    Frame rate mode             : Constant
    Frame rate                  : 23.976 (24000/1001) FPS
    Color space                 : YUV
    Chroma subsampling          : 4:2:0
    Bit depth                   : 8 bits
    Scan type                   : Progressive
    Bits/(Pixel*Frame)          : 0.096
    Stream size                 : 5.72 GiB (73%)
    Writing library             : x264 core 157 r2935 545de2f
    Encoding settings           : cabac=1 / ref=5 / deblock=1:0:0 / analyse=0x3:0x113 / me=hex / subme=8 / psy=1 / psy_rd=1.00:0.00 / mixed_ref=1 / me_range=16 / chroma_me=1 / trellis=2 / 8x8dct=1 / cqm=0 / deadzone=21,11 / fast_pskip=1 / chroma_qp_offset=-2 / threads=24 / lookahead_threads=4 / sliced_threads=0 / nr=0 / decimate=1 / interlaced=0 / bluray_compat=0 / constrained_intra=0 / bframes=3 / b_pyramid=2 / b_adapt=1 / b_bias=0 / direct=3 / weightb=1 / open_gop=0 / weightp=2 / keyint=240 / keyint_min=24 / scenecut=40 / intra_refresh=0 / rc_lookahead=50 / rc=abr / mbtree=1 / bitrate=3500 / ratetol=1.0 / qcomp=0.60 / qpmin=0 / qpmax=69 / qpstep=4 / vbv_maxrate=62500 / vbv_bufsize=78125 / nal_hrd=none / filler=0 / ip_ratio=1.40 / aq=1:1.00
    Default                     : Yes
    Forced                      : No
    Color range                 : Limited
    Color primaries             : BT.709
    Transfer characteristics    : BT.709
    Matrix coefficients         : BT.709

    Audio #1
    ID                          : 2
    Format                      : AC-3
    Format/Info                 : Audio Coding 3
    Commercial name             : Dolby Digital
    Codec ID                    : A_AC3
    Duration                    : 3 h 55 min
    Bit rate mode               : Constant
    Bit rate                    : 640 kb/s
    Channel(s)                  : 6 channels
    Channel layout              : L R C LFE Ls Rs
    Sampling rate               : 48.0 kHz
    Frame rate                  : 31.250 FPS (1536 SPF)
    Compression mode            : Lossy
    Delay relative to video     : -5 ms
    Stream size                 : 1.05 GiB (13%)
    Language                    : Spanish
    Service kind                : Complete Main
    Default                     : Yes
    Forced                      : No

    Audio #2
    ID                          : 3
    Format                      : AC-3
    Format/Info                 : Audio Coding 3
    Commercial name             : Dolby Digital
    Codec ID                    : A_AC3
    Duration                    : 3 h 55 min
    Bit rate mode               : Constant
    Bit rate                    : 640 kb/s
    Channel(s)                  : 6 channels
    Channel layout              : L R C LFE Ls Rs
    Sampling rate               : 48.0 kHz
    Frame rate                  : 31.250 FPS (1536 SPF)
    Compression mode            : Lossy
    Delay relative to video     : -5 ms
    Stream size                 : 1.05 GiB (13%)
    Language                    : English
    Service kind                : Complete Main
    Default                     : No
    Forced                      : No

    Text #1
    ID                          : 4
    Format                      : UTF-8
    Codec ID                    : S_TEXT/UTF8
    Codec ID/Info               : UTF-8 Plain Text
    Duration                    : 3 h 26 min
    Bit rate                    : 13 b/s
    Count of elements           : 633
    Stream size                 : 19.7 KiB (0%)
    Title                       : Forzados
    Language                    : Spanish
    Default                     : Yes
    Forced                      : Yes

    Text #2
    ID                          : 5
    Format                      : UTF-8
    Codec ID                    : S_TEXT/UTF8
    Codec ID/Info               : UTF-8 Plain Text
    Duration                    : 3 h 33 min
    Bit rate                    : 38 b/s
    Count of elements           : 2028
    Stream size                 : 60.4 KiB (0%)
    Title                       : Completos
    Language                    : Spanish
    Default                     : No
    Forced                      : No

    Menu
    00:00:00.000                : :The Foundations of Stone
    00:04:08.749                : :Elven Rope
    00:06:10.829                : :The Taming of Sméagol
    00:14:44.967                : :The Uruk-hai
    00:17:06.609                : :The Three Huners
    00:19:17.948                : :The Burning of the Westfold
    00:23:07.136                : :Massacre at the Fords of Isen
    00:23:58.312                : :The Banishment of Éomer
    00:27:09.044                : :On the Trail of the Uruk-hai
    00:28:03.182                : :Night Camp at Fangorn
    00:31:38.230                : :The Riders of Rohan
    00:35:45.518                : :The Fate of Merry and Pippin
    00:38:17.879                : :Treebeard
    00:41:47.797                : :The Passage of the Marshes
    00:50:49.755                : :The White Rider
    00:58:19.413                : :The Song of the Entwives
    01:00:40.178                : :The Heir of Númenor
    01:02:48.306                : :The Black Gate is Closed
    01:08:05.999                : :Ent Draft
    01:12:41.732                : :The King of the Golden Hall
    01:24:17.344                : :The Funeral of Théodred
    01:25:41.637                : :Simbelmynë on the Burial Mounds
    01:27:34.332                : :The King's Decision
    01:30:45.523                : :Brego
    01:32:30.587                : :The Ring of Barahir
    01:34:31.040                : :A Daughter of Kings
    01:35:57.043                : :Exodus from Edoras
    01:37:02.317                : :The Forests of Ithilien
    01:38:43.960                : :Gollum and Sméagol
    01:41:14.819                : :Of Herbs and Stewed Rabbit
    01:46:36.015                : :Dwarf Women
    01:47:17.765                : :One of the Dúnedain
    01:49:47.623                : :The Evenstar
    01:54:54.179                : :The Wolves of Isengard
    02:01:32.368                : :Helm's Deep
    02:04:12.487                : :Isengard Unleashed
    02:06:48.935                : :The Grace of the Valar
    02:08:26.490                : :Arwen's Fate
    02:12:09.255                : :The Story Foreseen from Lórien
    02:14:35.234                : :The Window on the West
    02:18:24.838                : :Sons of the Steward
    02:23:04.409                : :The Forbidden Pool
    02:30:26.100                : :Aragorn's Return
    02:35:59.350                : :Entmoot
    02:37:19.221                : :The Glittering Caves
    02:40:27.535                : :"Where is the Horses and the Rider?"
    02:42:12.223                : :"Don't Be Hasty, Master Meriadoc!"
    02:43:02.898                : :The Host of the Elder
    02:46:36.987                : :The Battle of the Hornburg
    02:52:59.369                : :Old Entish
    02:54:36.424                : :The Breach of the Deeping Wall
    02:58:01.588                : :The Entmoot Decides
    02:59:46.693                : :The Retreat to the Hornburg
    03:05:49.180                : :Master Peregrin's Plan
    03:07:14.265                : :Osgiliath
    03:07:49.049                : :The Last March of the Ents
    03:10:18.532                : :The Nazgûl Attack
    03:12:50.517                : :Forth Eorlingas
    03:17:29.004                : :The Flooding of Isengard
    03:19:55.358                : :The Tales That Really Mattered...
    03:24:40.643                : :Fangorn Comes to Helm's Deep
    03:25:33.196                : :The Final Talfy
    03:26:13.736                : :Flotsam and Jetsam
    03:28:17.527                : :Farewell to Faramir
    03:30:47.385                : :"The Battle for Middle-earth is About to Begin"
    03:32:27.068                : :Gollum's Plan
    03:34:51.253                : :End Credits
    03:43:47.539                : :Fan Club Credits

  • Peso: 7.83 GiB

Sinopsis

La Compañía del Anillo se ha disuelto. El portador del anillo Frodo y su fiel amigo Sam se dirigen hacia Mordor para destruir el Anillo Único y acabar con el poder de Sauron. Mientras, y tras la dura batalla contra los orcos donde cayó Boromir, el hombre Aragorn, el elfo Legolas y el enano Gimli intentan rescatar a los medianos Merry y Pipin, secuestrados por los ogros de Mordor. Por su parte, Saurón y el traidor Sarumán continúan con sus planes en Mordor, en espera de la guerra contra las razas libres de la Tierra Media.

Latino Con Partes en Ingles: Ac3 5.1  – Ingles: AC3 5.1

Audio latino ingles corregido y de más calidad

Ficha técnica

  • Titulo original: The Lord of the Rings: The Two Towers
  • Fecha de lanzamiento: 18-12-2002 (New Zealand, United States of America)
  • Director: Peter Jackson
  • Género: Acción, Aventura, Fantasía

Video trailer de la película

Enlaces de descarga

Rip de Bluray

Descargar El señor de los anillos Las dos torres (2002) EXTENDED HD 1080p Latino – CMHDD




Aportes de DPeliculasHDmega la pass es:dpeliculashdmega.org Aportes de CinemaniaHD la pass es:cinemaniahdd.com
Guardado en : Acción , Aventura , Fantasía

Películas relacionadas

descargar El señor de los anillos Las dos torres (2002) EXTENDED HD 1080p Latino – CMHDD 1080p 1080p gratis, El señor de los anillos Las dos torres (2002) EXTENDED HD 1080p Latino – CMHDD 1080p mega 1 link, El señor de los anillos Las dos torres (2002) EXTENDED HD 1080p Latino – CMHDD 1080p pelicula completa, descargar El señor de los anillos Las dos torres (2002) EXTENDED HD 1080p Latino – CMHDD 1080p gratis en mega.

El señor de los anillos Las dos torres (2002) EXTENDED HD 1080p Latino – CMHDD pelicula full hd, El señor de los anillos Las dos torres (2002) EXTENDED HD 1080p Latino – CMHDD mega latino, El señor de los anillos Las dos torres (2002) EXTENDED HD 1080p Latino – CMHDD 4k latino, El señor de los anillos Las dos torres (2002) EXTENDED HD 1080p Latino – CMHDD pelicula completa, El señor de los anillos Las dos torres (2002) EXTENDED HD 1080p Latino – CMHDD descargar gratis, descargar El señor de los anillos Las dos torres (2002) EXTENDED HD 1080p Latino – CMHDD pelicula latino, El señor de los anillos Las dos torres (2002) EXTENDED HD 1080p Latino – CMHDD 1 link mega, El señor de los anillos Las dos torres (2002) EXTENDED HD 1080p Latino – CMHDD 1 link google drive, El señor de los anillos Las dos torres (2002) EXTENDED HD 1080p Latino – CMHDD hd 1080p latino.
Comentarios 2
  • Juan García - 15 junio, 2020

    No aparece el link de Google Drive 🙁