×

¿Problemas para descargar con Mozilla, EDGE? Deshabilita la opción "Abrir vinculos en una pestaña nueva" tal como lo muestra ésta imagen.

El señor de los anillos Las dos torres (2002) EXTENDED 4K BDRip HDR Latino – CMHDD

712 vistas

Información de El señor de los anillos Las dos torres (2002) EXTENDED 4K BDRip HDR Latino – CMHDD

Datos de la película

  • Calidad: 4K HDR
  • Audio: Se especifica abajo de la Sinopsis
  • Subtitulos: Español Latino SRT- FORZADOS SRT
  • Resolución: 3840x1610p
  • Formato: MKV
  • Codec: H.264
  • Encoder: Dracarys
  • Mediainfo: Clic para Mostrar Datos Ver
  • Format                      : Matroska
    Format version              : Version 4
    File size                   : 37.5 GiB
    Duration                    : 3 h 55 min
    Overall bit rate mode       : Variable
    Overall bit rate            : 22.8 Mb/s
    Movie name                  : El señor de los anillos Las dos torres (2002) 4K BDRip HDR Latino – CMHDD
    Encoded date                : UTC 2020-12-09 19:20:39
    Writing application         : mkvmerge v51.0.0 ('I Wish') 64-bit
    Writing library             : libebml v1.4.0 + libmatroska v1.6.2

    Video
    ID                          : 1
    Format                      : HEVC
    Format/Info                 : High Efficiency Video Coding
    Format profile              : Main 10@L5.1@High
    HDR format                  : SMPTE ST 2086, HDR10 compatible
    Codec ID                    : V_MPEGH/ISO/HEVC
    Duration                    : 3 h 55 min
    Bit rate                    : 18.6 Mb/s
    Width                       : 3 840 pixels
    Height                      : 1 610 pixels
    Display aspect ratio        : 2.40:1
    Frame rate mode             : Constant
    Frame rate                  : 23.976 (24000/1001) FPS
    Color space                 : YUV
    Chroma subsampling          : 4:2:0 (Type 2)
    Bit depth                   : 10 bits
    Bits/(Pixel*Frame)          : 0.125
    Stream size                 : 30.6 GiB (81%)
    Writing library             : x265 3.4+12-g9103319fc:[Windows][MSVC 1900][64 bit] 10bit
    Encoding settings           : cpuid=1176575 / frame-threads=5 / numa-pools=36 / wpp / no-pmode / no-pme / no-psnr / no-ssim / log-level=2 / input-csp=1 / input-res=3840x1610 / interlace=0 / total-frames=338832 / level-idc=51 / high-tier=1 / uhd-bd=0 / ref=4 / no-allow-non-conformance / repeat-headers / annexb / aud / hrd / info / hash=0 / no-temporal-layers / no-open-gop / min-keyint=23 / keyint=250 / gop-lookahead=0 / bframes=4 / b-adapt=2 / b-pyramid / bframe-bias=0 / rc-lookahead=25 / lookahead-slices=4 / scenecut=40 / hist-scenecut=0 / radl=0 / no-splice / no-intra-refresh / ctu=64 / min-cu-size=8 / rect / no-amp / max-tu-size=32 / tu-inter-depth=1 / tu-intra-depth=1 / limit-tu=0 / rdoq-level=2 / dynamic-rd=0.00 / no-ssim-rd / signhide / no-tskip / nr-intra=0 / nr-inter=0 / no-constrained-intra / no-strong-intra-smoothing / max-merge=3 / limit-refs=3 / limit-modes / me=3 / subme=3 / merange=57 / temporal-mvp / no-frame-dup / no-hme / weightp / no-weightb / no-analyze-src-pics / deblock=-3:-3 / no-sao / no-sao-non-deblock / rd=4 / selective-sao=0 / no-early-skip / rskip / no-fast-intra / no-tskip-fast / no-cu-lossless / no-b-intra / no-splitrd-skip / rdpenalty=0 / psy-rd=2.00 / psy-rdoq=1.00 / no-rd-refine / no-lossless / cbqpoffs=0 / crqpoffs=0 / rc=crf / crf=12.5 / qcomp=0.60 / qpstep=4 / stats-write=0 / stats-read=0 / vbv-maxrate=160000 / vbv-bufsize=160000 / vbv-init=0.9 / crf-max=0.0 / crf-min=0.0 / ipratio=1.40 / pbratio=1.30 / aq-mode=2 / aq-strength=0.80 / cutree / zone-count=0 / no-strict-cbr / qg-size=32 / no-rc-grain / qpmax=69 / qpmin=0 / no-const-vbv / sar=1 / overscan=0 / videoformat=5 / range=0 / colorprim=9 / transfer=16 / colormatrix=9 / chromaloc=1 / chromaloc-top=2 / chromaloc-bottom=2 / display-window=0 / master-display=G(13250,34500)B(7500,3000)R(34000,16000)WP(15635,16450)L(40000000,50) / cll=827,329 / min-luma=0 / max-luma=1023 / log2-max-poc-lsb=8 / vui-timing-info / vui-hrd-info / slices=1 / no-opt-qp-pps / no-opt-ref-list-length-pps / no-multi-pass-opt-rps / scenecut-bias=0.05 / hist-threshold=0.01 / no-opt-cu-delta-qp / no-aq-motion / hdr10 / hdr10-opt / no-dhdr10-opt / no-idr-recovery-sei / analysis-reuse-level=0 / analysis-save-reuse-level=0 / analysis-load-reuse-level=0 / scale-factor=0 / refine-intra=0 / refine-inter=0 / refine-mv=1 / refine-ctu-distortion=0 / no-limit-sao / ctu-info=0 / no-lowpass-dct / refine-analysis-type=0 / copy-pic=1 / max-ausize-factor=1.0 / no-dynamic-refine / no-single-sei / no-hevc-aq / no-svt / no-field / qp-adaptation-range=1.00 / no-scenecut-aware-qpconformance-window-offsets / right=0 / bottom=0 / decoder-max-rate=0
    Default                     : Yes
    Forced                      : No
    Color range                 : Limited
    Color primaries             : BT.2020
    Transfer characteristics    : PQ
    Matrix coefficients         : BT.2020 non-constant
    Mastering display color pri : Display P3
    Mastering display luminance : min: 0.0050 cd/m2, max: 4000 cd/m2
    Maximum Content Light Level : 827 cd/m2
    Maximum Frame-Average Light : 329 cd/m2

    Audio #1
    ID                          : 2
    Format                      : AC-3
    Format/Info                 : Audio Coding 3
    Commercial name             : Dolby Digital
    Codec ID                    : A_AC3
    Duration                    : 3 h 55 min
    Bit rate mode               : Constant
    Bit rate                    : 640 kb/s
    Channel(s)                  : 6 channels
    Channel layout              : L R C LFE Ls Rs
    Sampling rate               : 48.0 kHz
    Frame rate                  : 31.250 FPS (1536 SPF)
    Compression mode            : Lossy
    Stream size                 : 1.05 GiB (3%)
    Language                    : Spanish
    Service kind                : Complete Main
    Default                     : Yes
    Forced                      : No

    Audio #2
    ID                          : 3
    Format                      : MLP FBA 16-ch
    Format/Info                 : Meridian Lossless Packing FBA with 16-channel presentation
    Commercial name             : Dolby TrueHD with Dolby Atmos
    Codec ID                    : A_TRUEHD
    Duration                    : 3 h 55 min
    Bit rate mode               : Variable
    Bit rate                    : 3 057 kb/s
    Maximum bit rate            : 4 668 kb/s
    Channel(s)                  : 8 channels
    Channel layout              : L R C LFE Ls Rs Lb Rb
    Sampling rate               : 48.0 kHz
    Frame rate                  : 1 200.000 FPS (40 SPF)
    Compression mode            : Lossless
    Stream size                 : 5.03 GiB (13%)
    Language                    : English
    Default                     : No
    Forced                      : No
    Number of dynamic objects   : 11
    Bed channel count           : 1 channel
    Bed channel configuration   : LFE

    Audio #3
    ID                          : 4
    Format                      : AC-3
    Format/Info                 : Audio Coding 3
    Commercial name             : Dolby Digital
    Codec ID                    : A_AC3
    Duration                    : 3 h 55 min
    Bit rate mode               : Constant
    Bit rate                    : 448 kb/s
    Channel(s)                  : 6 channels
    Channel layout              : L R C LFE Ls Rs
    Sampling rate               : 48.0 kHz
    Frame rate                  : 31.250 FPS (1536 SPF)
    Compression mode            : Lossy
    Stream size                 : 755 MiB (2%)
    Language                    : English
    Service kind                : Complete Main
    Default                     : No
    Forced                      : No

    Text #1
    ID                          : 5
    Format                      : UTF-8
    Codec ID                    : S_TEXT/UTF8
    Codec ID/Info               : UTF-8 Plain Text
    Duration                    : 3 h 26 min
    Bit rate                    : 13 b/s
    Count of elements           : 633
    Stream size                 : 19.7 KiB (0%)
    Language                    : Spanish
    Default                     : Yes
    Forced                      : No

    Text #2
    ID                          : 6
    Format                      : UTF-8
    Codec ID                    : S_TEXT/UTF8
    Codec ID/Info               : UTF-8 Plain Text
    Duration                    : 3 h 33 min
    Bit rate                    : 38 b/s
    Count of elements           : 2028
    Stream size                 : 60.4 KiB (0%)
    Language                    : Spanish
    Default                     : No
    Forced                      : No

    Text #3
    ID                          : 7
    Format                      : PGS
    Muxing mode                 : zlib
    Codec ID                    : S_HDMV/PGS
    Codec ID/Info               : Picture based subtitle format used on BDs/HD-DVDs
    Duration                    : 3 h 54 min
    Bit rate                    : 20.2 kb/s
    Count of elements           : 4066
    Stream size                 : 33.9 MiB (0%)
    Language                    : Spanish
    Default                     : No
    Forced                      : No

    Menu
    00:00:00.000                : en:Chapter 01
    00:04:08.373                : en:Chapter 02
    00:06:10.703                : en:Chapter 03
    00:14:44.925                : en:Chapter 04
    00:17:06.567                : en:Chapter 05
    00:19:17.823                : en:Chapter 06
    00:23:03.715                : en:Chapter 07
    00:23:58.186                : en:Chapter 08
    00:27:09.002                : en:Chapter 09
    00:28:02.972                : en:Chapter 10
    00:31:38.062                : en:Chapter 11
    00:35:45.351                : en:Chapter 12
    00:38:17.545                : en:Chapter 13
    00:41:47.171                : en:Chapter 14
    00:50:49.296                : en:Chapter 15
    00:58:19.370                : en:Chapter 16
    01:00:40.136                : en:Chapter 17
    01:02:48.264                : en:Chapter 18
    01:08:05.956                : en:Chapter 19
    01:12:41.315                : en:Chapter 20
    01:24:17.302                : en:Chapter 21
    01:25:42.053                : en:Chapter 22
    01:27:34.290                : en:Chapter 23
    01:30:44.772                : en:Chapter 24
    01:32:30.545                : en:Chapter 25
    01:34:30.790                : en:Chapter 26
    01:35:56.751                : en:Chapter 27
    01:37:01.232                : en:Chapter 28
    01:38:43.918                : en:Chapter 29
    01:41:15.235                : en:Chapter 30
    01:46:39.200                : en:Chapter 01
    01:47:22.952                : en:Chapter 02
    01:49:52.434                : en:Chapter 03
    01:54:59.366                : en:Chapter 04
    02:01:37.555                : en:Chapter 05
    02:04:18.091                : en:Chapter 06
    02:06:54.122                : en:Chapter 07
    02:08:31.802                : en:Chapter 08
    02:12:14.442                : en:Chapter 09
    02:14:40.421                : en:Chapter 10
    02:18:30.526                : en:Chapter 11
    02:23:09.596                : en:Chapter 12
    02:30:31.162                : en:Chapter 13
    02:36:04.537                : en:Chapter 14
    02:37:24.408                : en:Chapter 15
    02:40:32.680                : en:Chapter 16
    02:42:17.409                : en:Chapter 17
    02:43:07.876                : en:Chapter 18
    02:46:40.506                : en:Chapter 19
    02:53:04.556                : en:Chapter 20
    02:54:41.611                : en:Chapter 21
    02:58:06.399                : en:Chapter 22
    02:59:51.879                : en:Chapter 23
    03:05:54.367                : en:Chapter 24
    03:07:19.452                : en:Chapter 25
    03:07:54.153                : en:Chapter 26
    03:10:23.719                : en:Chapter 27
    03:12:55.704                : en:Chapter 28
    03:17:33.815                : en:Chapter 29
    03:20:00.253                : en:Chapter 30
    03:24:45.830                : en:Chapter 31
    03:25:38.341                : en:Chapter 32
    03:26:18.631                : en:Chapter 33
    03:28:22.714                : en:Chapter 34
    03:30:52.572                : en:Chapter 35
    03:32:32.255                : en:Chapter 36
    03:34:56.774                : en:Chapter 37
    03:43:52.684                : en:Chapter 38

  • Peso: 37.5 GiB

Sinopsis

La Compañía del Anillo se ha disuelto. El portador del anillo Frodo y su fiel amigo Sam se dirigen hacia Mordor para destruir el Anillo Único y acabar con el poder de Sauron. Mientras, y tras la dura batalla contra los orcos donde cayó Boromir, el hombre Aragorn, el elfo Legolas y el enano Gimli intentan rescatar a los medianos Merry y Pipin, secuestrados por los ogros de Mordor. Por su parte, Saurón y el traidor Sarumán continúan con sus planes en Mordor, en espera de la guerra contra las razas libres de la Tierra Media.

Latino Con Partes en Ingles: Ac3 5.1  – Ingles: DTS-HD MA 6.1+TrueHD 7.1

Audio latino ingles corregido y de más calidad

Ficha técnica

  • Titulo original: The Lord of the Rings: The Two Towers
  • Fecha de lanzamiento: 18-12-2002 (New Zealand, United States of America)
  • Director: Peter Jackson
  • Género: Acción, Aventura, Fantasía

Video trailer de la película

Enlaces de descarga

Rip de Bluray

Descargar El señor de los anillos Las dos torres (2002) EXTENDED 4K BDRip HDR Latino – CMHDD




Aportes de DPeliculasHDmega la pass es:dpeliculashdmega.org Aportes de CinemaniaHD la pass es:cinemaniahdd.com
Guardado en : Acción , Aventura , Fantasía

Películas relacionadas

descargar El señor de los anillos Las dos torres (2002) EXTENDED 4K BDRip HDR Latino – CMHDD 4K HDR 1080p gratis, El señor de los anillos Las dos torres (2002) EXTENDED 4K BDRip HDR Latino – CMHDD 4K HDR mega 1 link, El señor de los anillos Las dos torres (2002) EXTENDED 4K BDRip HDR Latino – CMHDD 4K HDR pelicula completa, descargar El señor de los anillos Las dos torres (2002) EXTENDED 4K BDRip HDR Latino – CMHDD 4K HDR gratis en mega.

El señor de los anillos Las dos torres (2002) EXTENDED 4K BDRip HDR Latino – CMHDD pelicula full hd, El señor de los anillos Las dos torres (2002) EXTENDED 4K BDRip HDR Latino – CMHDD mega latino, El señor de los anillos Las dos torres (2002) EXTENDED 4K BDRip HDR Latino – CMHDD 4k latino, El señor de los anillos Las dos torres (2002) EXTENDED 4K BDRip HDR Latino – CMHDD pelicula completa, El señor de los anillos Las dos torres (2002) EXTENDED 4K BDRip HDR Latino – CMHDD descargar gratis, descargar El señor de los anillos Las dos torres (2002) EXTENDED 4K BDRip HDR Latino – CMHDD pelicula latino, El señor de los anillos Las dos torres (2002) EXTENDED 4K BDRip HDR Latino – CMHDD 1 link mega, El señor de los anillos Las dos torres (2002) EXTENDED 4K BDRip HDR Latino – CMHDD 1 link google drive, El señor de los anillos Las dos torres (2002) EXTENDED 4K BDRip HDR Latino – CMHDD hd 1080p latino.
Comentarios 0