×

¿Problemas para descargar con Mozilla, EDGE? Deshabilita la opción "Abrir vinculos en una pestaña nueva" tal como lo muestra ésta imagen.

El señor de los anillos Las dos torres (2002) 4K REMUX HDR Latino – CMHDD

639 vistas

Información de El señor de los anillos Las dos torres (2002) 4K REMUX HDR Latino – CMHDD

Datos de la película

  • Calidad: 4K HDR
  • Audio: Se especifica abajo de la Sinopsis
  • Subtitulos: Español Latino SRT- FORZADOS SRT
  • Resolución: 840x2160p
  • Formato: MKV
  • Codec: H.264
  • Encoder: Dracarys
  • Mediainfo: Clic para Mostrar Datos Ver
  • Format                      : Matroska
    Format version              : Version 4
    File size                   : 117 GiB
    Duration                    : 3 h 55 min
    Overall bit rate mode       : Variable
    Overall bit rate            : 70.9 Mb/s
    Movie name                  : El señor de los anillos Las dos torres (2002) 4K REMUX HDR Latino - CMHDD
    Encoded date                : UTC 2020-12-12 17:50:52
    Writing application         : mkvmerge v51.0.0 ('I Wish') 64-bit
    Writing library             : libebml v1.4.0 + libmatroska v1.6.2
    IMDB                        : tt0167261
    TMDB                        : movie/121

    Video
    ID                          : 1
    Format                      : HEVC
    Format/Info                 : High Efficiency Video Coding
    Format profile              : Main 10@L5.1@High
    HDR format                  : SMPTE ST 2086, HDR10 compatible
    Codec ID                    : V_MPEGH/ISO/HEVC
    Duration                    : 3 h 55 min
    Bit rate                    : 62.2 Mb/s
    Width                       : 3 840 pixels
    Height                      : 2 160 pixels
    Display aspect ratio        : 16:9
    Frame rate mode             : Constant
    Frame rate                  : 23.976 (24000/1001) FPS
    Color space                 : YUV
    Chroma subsampling          : 4:2:0 (Type 2)
    Bit depth                   : 10 bits
    Bits/(Pixel*Frame)          : 0.313
    Stream size                 : 102 GiB (88%)
    Default                     : Yes
    Forced                      : No
    Color range                 : Limited
    Color primaries             : BT.2020
    Transfer characteristics    : PQ
    Matrix coefficients         : BT.2020 non-constant
    Mastering display color pri : Display P3
    Mastering display luminance : min: 0.0050 cd/m2, max: 4000 cd/m2
    Maximum Content Light Level : 827 cd/m2
    Maximum Frame-Average Light : 329 cd/m2

    Audio #1
    ID                          : 2
    Format                      : AC-3
    Format/Info                 : Audio Coding 3
    Commercial name             : Dolby Digital
    Codec ID                    : A_AC3
    Duration                    : 3 h 55 min
    Bit rate mode               : Constant
    Bit rate                    : 640 kb/s
    Channel(s)                  : 6 channels
    Channel layout              : L R C LFE Ls Rs
    Sampling rate               : 48.0 kHz
    Frame rate                  : 31.250 FPS (1536 SPF)
    Compression mode            : Lossy
    Stream size                 : 1.05 GiB (1%)
    Language                    : Spanish
    Service kind                : Complete Main
    Default                     : Yes
    Forced                      : No

    Audio #2
    ID                          : 3
    Format                      : DTS ES XXCH XLL
    Format/Info                 : Digital Theater Systems
    Commercial name             : DTS-HD Master Audio
    Codec ID                    : A_DTS
    Duration                    : 3 h 55 min
    Bit rate mode               : Variable
    Bit rate                    : 4 479 kb/s
    Channel(s)                  : 7 channels
    Channel layout              : C L R Ls Rs LFE Cb
    Sampling rate               : 48.0 kHz
    Frame rate                  : 93.750 FPS (512 SPF)
    Bit depth                   : 24 bits
    Compression mode            : Lossless
    Stream size                 : 7.37 GiB (6%)
    Language                    : English
    Default                     : No
    Forced                      : No

    Audio #3
    ID                          : 4
    Format                      : MLP FBA 16-ch
    Format/Info                 : Meridian Lossless Packing FBA with 16-channel presentation
    Commercial name             : Dolby TrueHD with Dolby Atmos
    Codec ID                    : A_TRUEHD
    Duration                    : 3 h 55 min
    Bit rate mode               : Variable
    Bit rate                    : 3 058 kb/s
    Maximum bit rate            : 4 668 kb/s
    Channel(s)                  : 8 channels
    Channel layout              : L R C LFE Ls Rs Lb Rb
    Sampling rate               : 48.0 kHz
    Frame rate                  : 1 200.000 FPS (40 SPF)
    Compression mode            : Lossless
    Stream size                 : 5.03 GiB (4%)
    Language                    : English
    Default                     : No
    Forced                      : No
    Number of dynamic objects   : 11
    Bed channel count           : 1 channel
    Bed channel configuration   : LFE

    Audio #4
    ID                          : 5
    Format                      : AC-3
    Format/Info                 : Audio Coding 3
    Commercial name             : Dolby Digital
    Codec ID                    : A_AC3
    Duration                    : 3 h 55 min
    Bit rate mode               : Constant
    Bit rate                    : 448 kb/s
    Channel(s)                  : 6 channels
    Channel layout              : L R C LFE Ls Rs
    Sampling rate               : 48.0 kHz
    Frame rate                  : 31.250 FPS (1536 SPF)
    Compression mode            : Lossy
    Stream size                 : 754 MiB (1%)
    Language                    : English
    Service kind                : Complete Main
    Default                     : No
    Forced                      : No

    Text #1
    ID                          : 6
    Format                      : PGS
    Muxing mode                 : zlib
    Codec ID                    : S_HDMV/PGS
    Codec ID/Info               : Picture based subtitle format used on BDs/HD-DVDs
    Duration                    : 3 h 54 min
    Bit rate                    : 20.2 kb/s
    Count of elements           : 4066
    Stream size                 : 33.9 MiB (0%)
    Title                       : Spanish (Latin American)
    Language                    : Spanish
    Default                     : No
    Forced                      : No

    Text #2
    ID                          : 7
    Format                      : UTF-8
    Codec ID                    : S_TEXT/UTF8
    Codec ID/Info               : UTF-8 Plain Text
    Duration                    : 3 h 26 min
    Bit rate                    : 13 b/s
    Count of elements           : 633
    Stream size                 : 19.7 KiB (0%)
    Title                       : Forzados
    Language                    : Spanish
    Default                     : Yes
    Forced                      : No

    Text #3
    ID                          : 8
    Format                      : UTF-8
    Codec ID                    : S_TEXT/UTF8
    Codec ID/Info               : UTF-8 Plain Text
    Duration                    : 3 h 33 min
    Bit rate                    : 38 b/s
    Count of elements           : 2028
    Stream size                 : 60.4 KiB (0%)
    Default                     : No
    Forced                      : No

    Menu
    00:00:00.000                : en:The Foundations of Stone
    00:04:08.707                : en:Elven Rope
    00:06:10.787                : en:The Taming of Smeagol
    00:14:44.926                : en:The Uruk-hai
    00:17:06.567                : en:The Three Hunters
    00:19:16.072                : en:The Burning of the Westfold
    00:23:03.716                : en:Massacre at the Fords of Isen
    00:23:58.270                : en:The Banishment of Eomer
    00:27:09.002                : en:On the Trail of the Uruk-hai
    00:28:03.140                : en:Night Camp at Fangorn
    00:31:38.188                : en:The Riders of Rohan
    00:35:45.477                : en:The Fate of Merry and Pippin
    00:38:17.545                : en:Treebeard
    00:41:47.171                : en:The Passage of the Marshes
    00:50:49.672                : en:The White Rider
    00:58:19.371                : en:The Song of the Entwives
    01:00:40.136                : en:The Heir of Numenor
    01:02:48.264                : en:The Black Gate is Closed
    01:08:05.957                : en:Ent Draft
    01:12:41.691                : en:The King of the Golden Hall
    01:24:17.302                : en:The Funeral of Theodred
    01:25:41.178                : en:Simbelmyne on the Burial Mounds
    01:27:34.291                : en:The King's Decision
    01:30:45.065                : en:Brego
    01:32:30.545                : en:The Ring of Barahir
    01:34:30.999                : en:A Daughter of Kings
    01:35:57.001                : en:Exodus from Edoras
    01:37:01.274                : en:The Forests of Ithilien
    01:38:43.918                : en:Gollum and Smeagol
    01:41:13.484                : en:Of Herbs and Stewed Rabbit
    01:46:34.180                : en:Dwarf Women
    01:47:15.930                : en:One of the Dunedain
    01:49:45.788                : en:The Evenstar
    01:54:52.344                : en:The Wolves of Isengard
    02:01:30.534                : en:Helm's Deep
    02:04:11.069                : en:Isengard Unleashed
    02:06:47.100                : en:The Grace of the Valar
    02:08:24.780                : en:Arwen's Fate
    02:12:07.420                : en:The Story Foreseen from Lorien
    02:14:33.399                : en:The Window on the West
    02:18:23.504                : en:Sons of the Steward
    02:23:02.575                : en:The Forbidden Pool
    02:30:24.266                : en:Aragorn's Return
    02:35:57.515                : en:Entmoot
    02:37:17.387                : en:The Glittering Caves
    02:40:25.658                : en:"Where is the Horse and the Rider?"
    02:42:10.388                : en:"Don't Be Hasty, Master Meriadoc!"
    02:43:01.063                : en:The Host of the Eldar
    02:46:33.484                : en:The Battle of the Hornburg
    02:52:57.534                : en:Old Entish
    02:54:34.590                : en:The Breach of the Deeping Wall
    02:57:59.711                : en:The Entmoot Decides
    02:59:44.858                : en:The Retreat to the Hornburg
    03:05:47.345                : en:Master Peregrin's Plan
    03:07:12.430                : en:Osgiliath
    03:07:47.173                : en:The Last March of the Ents
    03:10:16.697                : en:The Nazgul Attack
    03:12:48.683                : en:Forth Eorlingas
    03:17:27.169                : en:The Flooding of Isengard
    03:19:53.524                : en:The Tales That Really Mattered...
    03:24:38.809                : en:Fangorn Comes to Helm's Deep
    03:25:31.320                : en:The Final Tally
    03:26:11.902                : en:Flotsam and Jetsam
    03:28:15.692                : en:Farewell to Faramir
    03:30:45.550                : en:"The Battle for Middle-earth is About to Begin"
    03:32:25.233                : en:Gollum's Plan
    03:34:49.752                : en:End Credits
    03:43:46.538                : en:Fan Club Credits

  • Peso: 117 GiB

Sinopsis

La Compañía del Anillo se ha disuelto. El portador del anillo Frodo y su fiel amigo Sam se dirigen hacia Mordor para destruir el Anillo Único y acabar con el poder de Sauron. Mientras, y tras la dura batalla contra los orcos donde cayó Boromir, el hombre Aragorn, el elfo Legolas y el enano Gimli intentan rescatar a los medianos Merry y Pipin, secuestrados por los ogros de Mordor. Por su parte, Saurón y el traidor Sarumán continúan con sus planes en Mordor, en espera de la guerra contra las razas libres de la Tierra Media.

Latino Con Partes en Ingles: Ac3 5.1  – Ingles: DTS-HD MA 6.1+TrueHD 7.1

Audio latino ingles corregido y de más calidad

Ficha técnica

  • Titulo original: The Lord of the Rings: The Two Towers
  • Fecha de lanzamiento: 18-12-2002 (New Zealand, United States of America)
  • Director: Peter Jackson
  • Género: Acción, Aventura, Fantasía

Video trailer de la película

Enlaces de descarga

Rip de Bluray

Descargar El señor de los anillos Las dos torres (2002) 4K REMUX HDR Latino – CMHDD


Aportes de DPeliculasHDmega la pass es:dpeliculashdmega.org Aportes de CinemaniaHD la pass es:cinemaniahdd.com
Guardado en : Acción , Aventura , Fantasía

Películas relacionadas

  • Mi amigo el dragón (2016) Full HD 1080p Latino

    Mi amigo el dragón (2016) Full HD 1080p Latino

    2016
    Mi amigo el dragón (2016) Full HD 1080p Latino

    1h 43m 2016

    Descargar Mi amigo el dragón (2016) Full HD 1080p Latino. Durante años el Sr. Meacham, un viejo tallador...

    Director: Joe Nolan

    Género: Aventura

    Actores: William J. Rawbone

  • Mi amigo el dragón (2016) REMUX 1080p Latino

    Mi amigo el dragón (2016) REMUX 1080p Latino

    2016
    Mi amigo el dragón (2016) REMUX 1080p Latino

    1h 43m 2016

    Descargar Mi amigo el dragón (2016) REMUX 1080p Latino. Durante años el Sr. Meacham, un viejo tallador...

    Director: Joe Nolan

    Género: Aventura

    Actores: William J. Rawbone

  • Lucy (2014) REMUX 4K HDR Latino – CMHDD

    Lucy (2014) REMUX 4K HDR Latino – CMHDD

    2014
    Lucy (2014) REMUX 4K HDR Latino – CMHDD

    1h 30m 2014

    Lucy, una joven obligada a ejercer de mula de una nueva y potente droga, adquiere de repente enormes...

    Director: Luc Besson

    Género: Acción

    Actores: Wolfgang Pissors

descargar El señor de los anillos Las dos torres (2002) 4K REMUX HDR Latino – CMHDD 4K HDR 1080p gratis, El señor de los anillos Las dos torres (2002) 4K REMUX HDR Latino – CMHDD 4K HDR mega 1 link, El señor de los anillos Las dos torres (2002) 4K REMUX HDR Latino – CMHDD 4K HDR pelicula completa, descargar El señor de los anillos Las dos torres (2002) 4K REMUX HDR Latino – CMHDD 4K HDR gratis en mega.

El señor de los anillos Las dos torres (2002) 4K REMUX HDR Latino – CMHDD pelicula full hd, El señor de los anillos Las dos torres (2002) 4K REMUX HDR Latino – CMHDD mega latino, El señor de los anillos Las dos torres (2002) 4K REMUX HDR Latino – CMHDD 4k latino, El señor de los anillos Las dos torres (2002) 4K REMUX HDR Latino – CMHDD pelicula completa, El señor de los anillos Las dos torres (2002) 4K REMUX HDR Latino – CMHDD descargar gratis, descargar El señor de los anillos Las dos torres (2002) 4K REMUX HDR Latino – CMHDD pelicula latino, El señor de los anillos Las dos torres (2002) 4K REMUX HDR Latino – CMHDD 1 link mega, El señor de los anillos Las dos torres (2002) 4K REMUX HDR Latino – CMHDD 1 link google drive, El señor de los anillos Las dos torres (2002) 4K REMUX HDR Latino – CMHDD hd 1080p latino.
Comentarios 0