×

¿Problemas para descargar con Mozilla, EDGE? Deshabilita la opción "Abrir vinculos en una pestaña nueva" tal como lo muestra ésta imagen.

El señor de los anillos La comunidad del anillo (2001) THEATRICAL 4K REMUX HDR Latino – CMHDD

1.476 vistas

Información de El señor de los anillos La comunidad del anillo (2001) THEATRICAL 4K REMUX HDR Latino – CMHDD

Datos de la película

  • Calidad: 4K HDR
  • Audio: Español Latino AC3 2.0 BLURAY - Ingles DTS 5.1 BLURAY
  • Subtitulos: Español Latino SRT- FORZADOS SRT
  • Resolución: 3840x2160p
  • Formato: MKV
  • Codec: H.264
  • Encoder: Dracarys
  • Mediainfo: Clic para Mostrar Datos Ver
  • Format                      : Matroska
    Format version              : Version 4
    File size                   : 68.7 GiB
    Duration                    : 2 h 58 min
    Overall bit rate mode       : Variable
    Overall bit rate            : 55.1 Mb/s
    Movie name                  : El señor de los anillos La comunidad del anillo (2001) THEATRICAL 4K REMUX HDR Latino – CMHDD
    Encoded date                : UTC 2020-12-09 15:01:10
    Writing application         : mkvmerge v51.0.0 ('I Wish') 64-bit
    Writing library             : libebml v1.4.0 + libmatroska v1.6.2

    Video
    ID                          : 1
    Format                      : HEVC
    Format/Info                 : High Efficiency Video Coding
    Format profile              : Main 10@L5.1@High
    HDR format                  : SMPTE ST 2086, HDR10 compatible
    Codec ID                    : V_MPEGH/ISO/HEVC
    Duration                    : 2 h 58 min
    Bit rate                    : 51.4 Mb/s
    Width                       : 3 840 pixels
    Height                      : 2 160 pixels
    Display aspect ratio        : 16:9
    Frame rate mode             : Constant
    Frame rate                  : 23.976 (24000/1001) FPS
    Color space                 : YUV
    Chroma subsampling          : 4:2:0 (Type 2)
    Bit depth                   : 10 bits
    Bits/(Pixel*Frame)          : 0.258
    Stream size                 : 64.0 GiB (93%)
    Default                     : Yes
    Forced                      : No
    Color range                 : Limited
    Color primaries             : BT.2020
    Transfer characteristics    : PQ
    Matrix coefficients         : BT.2020 non-constant
    Mastering display color pri : Display P3
    Mastering display luminance : min: 0.0050 cd/m2, max: 4000 cd/m2
    Maximum Content Light Level : 602 cd/m2
    Maximum Frame-Average Light : 187 cd/m2

    Audio #1
    ID                          : 2
    Format                      : AC-3
    Format/Info                 : Audio Coding 3
    Commercial name             : Dolby Digital
    Codec ID                    : A_AC3
    Duration                    : 2 h 58 min
    Bit rate mode               : Constant
    Bit rate                    : 192 kb/s
    Channel(s)                  : 2 channels
    Channel layout              : L R
    Sampling rate               : 48.0 kHz
    Frame rate                  : 31.250 FPS (1536 SPF)
    Compression mode            : Lossy
    Stream size                 : 245 MiB (0%)
    Language                    : Spanish
    Service kind                : Complete Main
    Default                     : Yes
    Forced                      : No

    Audio #2
    ID                          : 3
    Format                      : MLP FBA 16-ch
    Format/Info                 : Meridian Lossless Packing FBA with 16-channel presentation
    Commercial name             : Dolby TrueHD with Dolby Atmos
    Codec ID                    : A_TRUEHD
    Duration                    : 2 h 58 min
    Bit rate mode               : Variable
    Bit rate                    : 3 055 kb/s
    Maximum bit rate            : 5 052 kb/s
    Channel(s)                  : 8 channels
    Channel layout              : L R C LFE Ls Rs Lb Rb
    Sampling rate               : 48.0 kHz
    Frame rate                  : 1 200.000 FPS (40 SPF)
    Compression mode            : Lossless
    Stream size                 : 3.81 GiB (6%)
    Language                    : English
    Default                     : No
    Forced                      : No
    Number of dynamic objects   : 11
    Bed channel count           : 1 channel
    Bed channel configuration   : LFE

    Audio #3
    ID                          : 4
    Format                      : AC-3
    Format/Info                 : Audio Coding 3
    Commercial name             : Dolby Digital
    Codec ID                    : A_AC3
    Duration                    : 2 h 58 min
    Bit rate mode               : Constant
    Bit rate                    : 448 kb/s
    Channel(s)                  : 6 channels
    Channel layout              : L R C LFE Ls Rs
    Sampling rate               : 48.0 kHz
    Frame rate                  : 31.250 FPS (1536 SPF)
    Compression mode            : Lossy
    Stream size                 : 572 MiB (1%)
    Language                    : English
    Service kind                : Complete Main
    Default                     : No
    Forced                      : No

    Text #1
    ID                          : 5
    Format                      : PGS
    Muxing mode                 : zlib
    Codec ID                    : S_HDMV/PGS
    Codec ID/Info               : Picture based subtitle format used on BDs/HD-DVDs
    Duration                    : 2 h 57 min
    Bit rate                    : 19.9 kb/s
    Count of elements           : 2784
    Stream size                 : 25.3 MiB (0%)
    Language                    : Spanish
    Default                     : No
    Forced                      : No

    Text #2
    ID                          : 6
    Format                      : UTF-8
    Codec ID                    : S_TEXT/UTF8
    Codec ID/Info               : UTF-8 Plain Text
    Duration                    : 2 h 57 min
    Bit rate                    : 35 b/s
    Count of elements           : 1391
    Stream size                 : 46.3 KiB (0%)
    Language                    : Spanish
    Default                     : No
    Forced                      : No

    Text #3
    ID                          : 7
    Format                      : UTF-8
    Codec ID                    : S_TEXT/UTF8
    Codec ID/Info               : UTF-8 Plain Text
    Duration                    : 2 h 56 min
    Bit rate                    : 0 b/s
    Count of elements           : 27
    Stream size                 : 748 Bytes (0%)
    Language                    : Spanish
    Default                     : Yes
    Forced                      : No

  • Peso: 68.7 GiB

Sinopsis

En la Tierra Media, el Señor Oscuro Saurón creó los Grandes Anillos de Poder, forjados por los herreros Elfos. Tres para los reyes Elfos, siete para los Señores Enanos, y nueve para los Hombres Mortales. Secretamente, Saurón también forjó un anillo maestro, el Anillo Único, que contiene en sí el poder para esclavizar a toda la Tierra Media. Con la ayuda de un grupo de amigos y de valientes aliados, Frodo emprende un peligroso viaje con la misión de destruir el Anillo Único. Pero el Señor Oscuro Sauron, quien creara el Anillo, envía a sus servidores para perseguir al grupo. Si Sauron lograra recuperar el Anillo, sería el final de la Tierra Media.

Ficha técnica

Video trailer de la película

Enlaces de descarga

Rip de Bluray

Descargar El señor de los anillos La comunidad del anillo (2001) THEATRICAL 4K REMUX HDR Latino – CMHDD


Aportes de DPeliculasHDmega la pass es:dpeliculashdmega.org Aportes de CinemaniaHD la pass es:cinemaniahdd.com
Guardado en : Acción , Aventura , Fantasía

Películas relacionadas

descargar El señor de los anillos La comunidad del anillo (2001) THEATRICAL 4K REMUX HDR Latino – CMHDD 4K HDR 1080p gratis, El señor de los anillos La comunidad del anillo (2001) THEATRICAL 4K REMUX HDR Latino – CMHDD 4K HDR mega 1 link, El señor de los anillos La comunidad del anillo (2001) THEATRICAL 4K REMUX HDR Latino – CMHDD 4K HDR pelicula completa, descargar El señor de los anillos La comunidad del anillo (2001) THEATRICAL 4K REMUX HDR Latino – CMHDD 4K HDR gratis en mega.

El señor de los anillos La comunidad del anillo (2001) THEATRICAL 4K REMUX HDR Latino – CMHDD pelicula full hd, El señor de los anillos La comunidad del anillo (2001) THEATRICAL 4K REMUX HDR Latino – CMHDD mega latino, El señor de los anillos La comunidad del anillo (2001) THEATRICAL 4K REMUX HDR Latino – CMHDD 4k latino, El señor de los anillos La comunidad del anillo (2001) THEATRICAL 4K REMUX HDR Latino – CMHDD pelicula completa, El señor de los anillos La comunidad del anillo (2001) THEATRICAL 4K REMUX HDR Latino – CMHDD descargar gratis, descargar El señor de los anillos La comunidad del anillo (2001) THEATRICAL 4K REMUX HDR Latino – CMHDD pelicula latino, El señor de los anillos La comunidad del anillo (2001) THEATRICAL 4K REMUX HDR Latino – CMHDD 1 link mega, El señor de los anillos La comunidad del anillo (2001) THEATRICAL 4K REMUX HDR Latino – CMHDD 1 link google drive, El señor de los anillos La comunidad del anillo (2001) THEATRICAL 4K REMUX HDR Latino – CMHDD hd 1080p latino.
Comentarios 2