×

¿Problemas para descargar con Mozilla, EDGE? Deshabilita la opción "Abrir vinculos en una pestaña nueva" tal como lo muestra ésta imagen.

El señor de los anillos: La comunidad del anillo (2001) [Version Extendida] REMUX 1080p Latino

932 vistas

Información de El señor de los anillos: La comunidad del anillo (2001) [Version Extendida] REMUX 1080p Latino

Datos de la película

  • Calidad: Full 1080p
  • Audio: Español Latino AC3 2.0 WEB-DL - Ingles DTS 5.1 BLURAY
  • Subtitulos: Español Latino SRT- FORZADOS SRT
  • Resolución: 1920x1080p
  • Formato: MKV
  • Codec: H.264
  • Encoder: cinemaniahdd
  • Mediainfo: Clic para Mostrar Datos Ver
  • El señor de los anillos. La comunidad del anillo (2001) [Version Extendida] REMUX 1080p Latino [CNMNHDD].mkv
    Format                      : Matroska
    Format version              : Version 4
    File size                   : 55.8 GiB
    Duration                    : 3 h 48 min
    Overall bit rate mode       : Variable
    Overall bit rate            : 35.0 Mb/s
    Movie name                  : The Lord of the Rings. The Fellowship of the Ring (2001) [Version Extendida] REMUX [1080p] - CinemaniaHDD.Net
    Encoded date                : UTC 2022-11-27 21:19:11
    Writing application         : mkvmerge v56.1.0 ('My Friend') 64-bit
    Writing library             : libebml v1.4.2 + libmatroska v1.6.4

    Video
    ID                          : 1
    Format                      : AVC
    Format/Info                 : Advanced Video Codec
    Format profile              : High@L4.1
    Format settings             : CABAC / 2 Ref Frames
    Format settings, CABAC      : Yes
    Format settings, Reference  : 2 frames
    Format settings, GOP        : M=1, N=10
    Codec ID                    : V_MPEG4/ISO/AVC
    Duration                    : 3 h 48 min
    Bit rate mode               : Variable
    Bit rate                    : 29.9 Mb/s
    Width                       : 1 920 pixels
    Height                      : 1 080 pixels
    Display aspect ratio        : 16:9
    Frame rate mode             : Constant
    Frame rate                  : 23.976 (24000/1001) FPS
    Color space                 : YUV
    Chroma subsampling          : 4:2:0
    Bit depth                   : 8 bits
    Scan type                   : Progressive
    Bits/(Pixel*Frame)          : 0.601
    Stream size                 : 47.6 GiB (85%)
    Title                       : CinemaniaHDD
    Language                    : English
    Default                     : Yes
    Forced                      : No

    Audio #1
    ID                          : 2
    Format                      : AC-3
    Format/Info                 : Audio Coding 3
    Commercial name             : Dolby Digital
    Codec ID                    : A_AC3
    Duration                    : 3 h 48 min
    Bit rate mode               : Constant
    Bit rate                    : 384 kb/s
    Channel(s)                  : 2 channels
    Channel layout              : L R
    Sampling rate               : 48.0 kHz
    Frame rate                  : 31.250 FPS (1536 SPF)
    Compression mode            : Lossy
    Stream size                 : 627 MiB (1%)
    Title                       : Español latino [CinemaniaHDD]
    Language                    : Spanish
    Service kind                : Complete Main
    Default                     : Yes
    Forced                      : No

    Audio #2
    ID                          : 3
    Format                      : DTS ES XXCH XLL
    Format/Info                 : Digital Theater Systems
    Commercial name             : DTS-HD Master Audio
    Codec ID                    : A_DTS
    Duration                    : 3 h 48 min
    Bit rate mode               : Variable
    Bit rate                    : 4 743 kb/s
    Channel(s)                  : 7 channels
    Channel layout              : C L R Ls Rs LFE Cb
    Sampling rate               : 48.0 kHz
    Frame rate                  : 93.750 FPS (512 SPF)
    Bit depth                   : 24 bits
    Compression mode            : Lossless
    Stream size                 : 7.56 GiB (14%)
    Title                       : Inglés [CinemaniaHDD]
    Language                    : English
    Default                     : No
    Forced                      : No

    Text #1
    ID                          : 4
    Format                      : UTF-8
    Codec ID                    : S_TEXT/UTF8
    Codec ID/Info               : UTF-8 Plain Text
    Duration                    : 3 h 12 min
    Bit rate                    : 0 b/s
    Count of elements           : 35
    Stream size                 : 1.00 KiB (0%)
    Title                       : Forzados [CinemaniaHDD]
    Language                    : Spanish
    Default                     : Yes
    Forced                      : Yes

    Text #2
    ID                          : 5
    Format                      : UTF-8
    Codec ID                    : S_TEXT/UTF8
    Codec ID/Info               : UTF-8 Plain Text
    Duration                    : 3 h 27 min
    Bit rate                    : 36 b/s
    Count of elements           : 1715
    Stream size                 : 55.5 KiB (0%)
    Title                       : Español latino [CinemaniaHDD]
    Language                    : Spanish
    Default                     : No
    Forced                      : No

    Text #3
    ID                          : 6
    Format                      : UTF-8
    Codec ID                    : S_TEXT/UTF8
    Codec ID/Info               : UTF-8 Plain Text
    Duration                    : 3 h 19 min
    Bit rate                    : 39 b/s
    Count of elements           : 1810
    Stream size                 : 57.6 KiB (0%)
    Title                       : Inglés [CinemaniaHDD]
    Language                    : English
    Default                     : No
    Forced                      : No

    Menu
    00:00:00.000                : Prologue: One Ring to Rule Them All...
    00:07:36.790                : Concerning Hobbits
    00:10:35.552                : The Shire
    00:15:39.856                : Very Old Friends
    00:19:58.489                : A Long-expected Party
    00:25:32.614                : Farewell Dear Bilbo
    00:29:57.379                : Keep It Secret, Keep It Safe
    00:32:10.679                : The Account of Isildur
    00:34:51.798                : At The Green Dragon
    00:36:18.176                : The Shadow of the Past
    00:45:04.160                : The Passing of the Elves
    00:46:44.301                : Saruman the White
    00:51:21.412                : A Short Cut to Mushrooms
    00:55:12.434                : Bucklebury Ferry
    00:57:30.072                : At the Sign of The Prancing Pony
    01:03:31.516                : The Nazgûl
    01:07:16.115                : The Midgewater Marshes
    01:08:53.588                : The Spoiling of Isengard
    01:10:35.940                : A Knife in the Dark
    01:15:15.386                : The Caverns of Isengard
    01:17:46.620                : Flight to the Ford
    01:24:11.546                : Rivendell
    01:26:12.501                : Many Meetings
    01:29:41.585                : The Fate of the Ring
    01:33:14.672                : The Sword That Was Broken
    01:35:54.081                : The Evenstar
    01:37:32.972                : The Council of Elrond
    01:45:38.374                : Gilraen's Memorial
    01:46:52.197                : Bilbo's Gifts
    01:48:35.592                : The Departure of the Fellowship
    01:49:53.003                : The Ring Goes South
    01:52:58.814                : The Pass of Caradhras
    01:57:45.100                : Moria
    02:04:10.485                : A Journey in the Dark
    02:10:40.833                : Balin's Tomb
    02:20:05.564                : The Bridge of Khazad-dûm
    02:29:47.020                : Lothlórien
    02:32:59.670                : Caras Galadhon
    02:40:16.690                : The Mirror of Galadriel
    02:45:56.697                : The Fighting Uruk-hai
    02:47:38.048                : Farewell to Lórien
    02:53:00.578                : The Great River
    02:57:52.829                : Parth Galen
    03:04:20.591                : The Breaking of the Fellowship
    03:11:36.527                : The Departure of Boromir
    03:14:18.855                : The Road Goes Ever On...
    03:20:37.025                : Credits

     

  • Peso: 55.8 GiB

Sinopsis

En la Tierra Media, el Señor Oscuro Saurón creó los Grandes Anillos de Poder, forjados por los herreros Elfos. Tres para los reyes Elfos, siete para los Señores Enanos, y nueve para los Hombres Mortales. Secretamente, Saurón también forjó un anillo maestro, el Anillo Único, que contiene en sí el poder para esclavizar a toda la Tierra Media. Con la ayuda de un grupo de amigos y de valientes aliados, Frodo emprende un peligroso viaje con la misión de destruir el Anillo Único. Pero el Señor Oscuro Sauron, quien creara el Anillo, envía a sus servidores para perseguir al grupo. Si Sauron lograra recuperar el Anillo, sería el final de la Tierra Media.

Ficha técnica

Video trailer de la película

Enlaces de descarga

Rip de Bluray

Descargar El señor de los anillos: La comunidad del anillo (2001) [Version Extendida] REMUX 1080p Latino




Aportes de DPeliculasHDmega la pass es:dpeliculashdmega.org Aportes de CinemaniaHD la pass es:cinemaniahdd.com
Guardado en : Acción , Aventura , Fantasía , Remux

Películas relacionadas

  • Un mundo extraño (2022) HD 1080p Latino

    Un mundo extraño (2022) HD 1080p Latino

    2022
    Un mundo extraño (2022) HD 1080p Latino

    1h 42m 2022

    Descargar Un mundo extraño (2022) HD 1080p Latino. Los Clades son una familia conocida en todo el mundo,...

    Director: Thai Bettistea

    Género: Animación

    Actores: Reed Buck

  • Un mundo extraño (2022) REMUX 1080p Latino

    Un mundo extraño (2022) REMUX 1080p Latino

    2022
    Un mundo extraño (2022) REMUX 1080p Latino

    1h 42m 2022

    Descargar Un mundo extraño (2022) REMUX 1080p. Un viaje a una tierra inexplorada y traicionera en la...

    Director: Thai Bettistea

    Género: Animación

    Actores: Reed Buck

  • Espiritu Libre (2023) NF WEB-DL 1080p Latino

    Espiritu Libre (2023) NF WEB-DL 1080p Latino

    2023
    Espiritu Libre (2023) NF WEB-DL 1080p Latino

    1h 49m 2023

    Descargar Espiritu Libre (2023) NF WEB-DL 1080p Latino. La película se basa en la increíble historia...

    Director: Sarah Spillane

    Género: Aventura

    Actores: Vivien Turner

descargar El señor de los anillos: La comunidad del anillo (2001) [Version Extendida] REMUX 1080p Latino Full 1080p 1080p gratis, El señor de los anillos: La comunidad del anillo (2001) [Version Extendida] REMUX 1080p Latino Full 1080p mega 1 link, El señor de los anillos: La comunidad del anillo (2001) [Version Extendida] REMUX 1080p Latino Full 1080p pelicula completa, descargar El señor de los anillos: La comunidad del anillo (2001) [Version Extendida] REMUX 1080p Latino Full 1080p gratis en mega.

El señor de los anillos: La comunidad del anillo (2001) [Version Extendida] REMUX 1080p Latino pelicula full hd, El señor de los anillos: La comunidad del anillo (2001) [Version Extendida] REMUX 1080p Latino mega latino, El señor de los anillos: La comunidad del anillo (2001) [Version Extendida] REMUX 1080p Latino 4k latino, El señor de los anillos: La comunidad del anillo (2001) [Version Extendida] REMUX 1080p Latino pelicula completa, El señor de los anillos: La comunidad del anillo (2001) [Version Extendida] REMUX 1080p Latino descargar gratis, descargar El señor de los anillos: La comunidad del anillo (2001) [Version Extendida] REMUX 1080p Latino pelicula latino, El señor de los anillos: La comunidad del anillo (2001) [Version Extendida] REMUX 1080p Latino 1 link mega, El señor de los anillos: La comunidad del anillo (2001) [Version Extendida] REMUX 1080p Latino 1 link google drive, El señor de los anillos: La comunidad del anillo (2001) [Version Extendida] REMUX 1080p Latino hd 1080p latino.
Comentarios 6
  • Octavio Cesar - 28 noviembre, 2022

    Gracias y saludos

  • Juan Pablo Cornara - 03 junio, 2021

    Cuando subiran los enlaces publicos de la trilogia?

    • CinemaniaHDD - 27 noviembre, 2022

      ya estan disponibles.

  • Marco R. - 25 junio, 2020

    Las partes extendidas no están traducidas y como que desentona la película.

    • Dracarys - 25 junio, 2020

      No hay versión latino parra esas partes… lo dice en el post…

  • ocpgaiden - 20 junio, 2020

    Gracias por El señor de los Anillos 1 remux, saludos