El señor de los anillos La comunidad del anillo (2001) EXTENDED 4K REMUX HDR Latino – CMHDD

165 vistas
1 estrella2 estrellas3 estrellas4 estrellas5 estrellas (Ninguna valoración todavía)
Cargando...

Información de El señor de los anillos La comunidad del anillo (2001) EXTENDED 4K REMUX HDR Latino – CMHDD

Datos de la película

  • Calidad: Full 1080p
  • Audio: Se especifica abajo de la Sinopsis
  • Subtitulos: Español Latino SRT- FORZADOS SRT
  • Resolución: 3840x2160p
  • Formato: MKV
  • Codec: H.264
  • Encoder: Dracarys
  • Mediainfo: Clic para Mostrar Datos Ver
  • Format                      : Matroska
    Format version              : Version 4
    File size                   : 119 GiB
    Duration                    : 3 h 48 min
    Overall bit rate mode       : Variable
    Overall bit rate            : 74.9 Mb/s
    Movie name                  : El señor de los anillos La comunidad del anillo (2001) EXTENDED 4K HDR Latino - CMHDD
    Encoded date                : UTC 2020-12-01 22:30:33
    Writing application         : mkvmerge v51.0.0 ('I Wish') 64-bit
    Writing library             : libebml v1.4.0 + libmatroska v1.6.2
    IMDB                        : tt0120737
    TMDB                        : movie/120

    Video
    ID                          : 1
    Format                      : HEVC
    Format/Info                 : High Efficiency Video Coding
    Format profile              : Main 10@L5.1@High
    HDR format                  : SMPTE ST 2086, HDR10 compatible
    Codec ID                    : V_MPEGH/ISO/HEVC
    Duration                    : 3 h 48 min
    Bit rate                    : 65.9 Mb/s
    Width                       : 3 840 pixels
    Height                      : 2 160 pixels
    Display aspect ratio        : 16:9
    Frame rate mode             : Constant
    Frame rate                  : 23.976 (24000/1001) FPS
    Color space                 : YUV
    Chroma subsampling          : 4:2:0 (Type 2)
    Bit depth                   : 10 bits
    Bits/(Pixel*Frame)          : 0.331
    Stream size                 : 105 GiB (88%)
    Default                     : Yes
    Forced                      : No
    Color range                 : Limited
    Color primaries             : BT.2020
    Transfer characteristics    : PQ
    Matrix coefficients         : BT.2020 non-constant
    Mastering display color pri : Display P3
    Mastering display luminance : min: 0.0050 cd/m2, max: 4000 cd/m2
    Maximum Content Light Level : 602 cd/m2
    Maximum Frame-Average Light : 184 cd/m2

    Audio #1
    ID                          : 2
    Format                      : AC-3
    Format/Info                 : Audio Coding 3
    Commercial name             : Dolby Digital
    Codec ID                    : A_AC3
    Duration                    : 3 h 48 min
    Bit rate mode               : Constant
    Bit rate                    : 448 kb/s
    Channel(s)                  : 6 channels
    Channel layout              : L R C LFE Ls Rs
    Sampling rate               : 48.0 kHz
    Frame rate                  : 31.250 FPS (1536 SPF)
    Compression mode            : Lossy
    Stream size                 : 732 MiB (1%)
    Title                       : Latino-Castellano
    Language                    : Spanish
    Service kind                : Complete Main
    Default                     : Yes
    Forced                      : No

    Audio #2
    ID                          : 3
    Format                      : AC-3
    Format/Info                 : Audio Coding 3
    Commercial name             : Dolby Digital
    Codec ID                    : A_AC3
    Duration                    : 3 h 48 min
    Bit rate mode               : Constant
    Bit rate                    : 320 kb/s
    Channel(s)                  : 6 channels
    Channel layout              : L R C LFE Ls Rs
    Sampling rate               : 44.1 kHz
    Frame rate                  : 28.711 FPS (1536 SPF)
    Compression mode            : Lossy
    Stream size                 : 522 MiB (0%)
    Title                       : Latino-Ingles
    Language                    : Spanish
    Service kind                : Complete Main
    Default                     : No
    Forced                      : No

    Audio #3
    ID                          : 4
    Format                      : MLP FBA 16-ch
    Format/Info                 : Meridian Lossless Packing FBA with 16-channel presentation
    Commercial name             : Dolby TrueHD with Dolby Atmos
    Codec ID                    : A_TRUEHD
    Duration                    : 3 h 48 min
    Bit rate mode               : Variable
    Bit rate                    : 2 995 kb/s
    Maximum bit rate            : 4 992 kb/s
    Channel(s)                  : 8 channels
    Channel layout              : L R C LFE Ls Rs Lb Rb
    Sampling rate               : 48.0 kHz
    Frame rate                  : 1 200.000 FPS (40 SPF)
    Compression mode            : Lossless
    Stream size                 : 4.77 GiB (4%)
    Language                    : English
    Default                     : No
    Forced                      : No
    Number of dynamic objects   : 11
    Bed channel count           : 1 channel
    Bed channel configuration   : LFE

    Audio #4
    ID                          : 5
    Format                      : DTS ES XXCH XLL
    Format/Info                 : Digital Theater Systems
    Commercial name             : DTS-HD Master Audio
    Codec ID                    : A_DTS
    Duration                    : 3 h 48 min
    Bit rate mode               : Variable
    Bit rate                    : 4 743 kb/s
    Channel(s)                  : 7 channels
    Channel layout              : C L R Ls Rs LFE Cb
    Sampling rate               : 48.0 kHz
    Frame rate                  : 93.750 FPS (512 SPF)
    Bit depth                   : 24 bits
    Compression mode            : Lossless
    Stream size                 : 7.56 GiB (6%)
    Language                    : English
    Default                     : No
    Forced                      : No

    Audio #5
    ID                          : 6
    Format                      : AC-3
    Format/Info                 : Audio Coding 3
    Commercial name             : Dolby Digital
    Codec ID                    : A_AC3
    Duration                    : 3 h 48 min
    Bit rate mode               : Constant
    Bit rate                    : 448 kb/s
    Channel(s)                  : 6 channels
    Channel layout              : L R C LFE Ls Rs
    Sampling rate               : 48.0 kHz
    Frame rate                  : 31.250 FPS (1536 SPF)
    Compression mode            : Lossy
    Stream size                 : 731 MiB (1%)
    Language                    : English
    Service kind                : Complete Main
    Default                     : No
    Forced                      : No

    Text #1
    ID                          : 7
    Format                      : UTF-8
    Codec ID                    : S_TEXT/UTF8
    Codec ID/Info               : UTF-8 Plain Text
    Duration                    : 3 h 11 min
    Bit rate                    : 13 b/s
    Count of elements           : 538
    Stream size                 : 19.2 KiB (0%)
    Title                       : Forzados
    Language                    : Spanish
    Default                     : Yes
    Forced                      : No

    Text #2
    ID                          : 8
    Format                      : UTF-8
    Codec ID                    : S_TEXT/UTF8
    Codec ID/Info               : UTF-8 Plain Text
    Duration                    : 3 h 19 min
    Bit rate                    : 41 b/s
    Count of elements           : 1756
    Stream size                 : 60.4 KiB (0%)
    Language                    : Spanish
    Default                     : No
    Forced                      : No

    Text #3
    ID                          : 9
    Format                      : PGS
    Muxing mode                 : zlib
    Codec ID                    : S_HDMV/PGS
    Codec ID/Info               : Picture based subtitle format used on BDs/HD-DVDs
    Duration                    : 3 h 47 min
    Bit rate                    : 19.1 kb/s
    Count of elements           : 3432
    Stream size                 : 31.1 MiB (0%)
    Language                    : Spanish
    Default                     : No
    Forced                      : No

    Menu
    00:00:00.000                : en:Prologue: One Ring to Rule Them All...
    00:07:36.790                : en:Concerning Hobbits
    00:10:35.760                : en:The Shire
    00:15:39.814                : en:Very Old Friends
    00:19:58.447                : en:A Long-expected Party
    00:25:32.573                : en:Farewell Dear Bilbo
    00:29:57.337                : en:Keep It Secret, Keep It Safe
    00:32:10.637                : en:The Account of Isildur
    00:34:51.756                : en:At The Green Dragon
    00:36:18.134                : en:The Shadow of the Past
    00:45:04.118                : en:The Passing of the Elves
    00:46:44.260                : en:Saruman the White
    00:51:21.370                : en:A Short Cut to Mushrooms
    00:55:12.392                : en:Bucklebury Ferry
    00:57:30.030                : en:At the Sign of The Prancing Pony
    01:03:31.474                : en:The Nazgul
    01:07:16.074                : en:The Midgewater Marshes
    01:08:53.546                : en:The Spoiling of Isengard
    01:10:35.898                : en:A Knife in the Dark
    01:15:15.344                : en:The Caverns of Isengard
    01:17:46.579                : en:Flight to the Ford
    01:24:11.546                : en:Rivendell
    01:26:12.459                : en:Many Meetings
    01:29:41.543                : en:The Fate of the Ring
    01:33:14.631                : en:The Sword That Was Broken
    01:35:54.040                : en:The Evenstar
    01:37:32.930                : en:The Council of Elrond
    01:45:38.374                : en:Gilraen's Memorial
    01:46:52.156                : en:Bilbo's Gifts
    01:48:35.551                : en:The Departure of the Fellowship
    01:49:52.961                : en:The Ring Goes South
    01:52:58.772                : en:The Pass of Caradhras
    01:57:45.058                : en:Moria
    02:04:10.360                : en:A Journey in the Dark
    02:10:40.750                : en:Balin's Tomb
    02:20:05.480                : en:The Bridge of Khazad-dum
    02:29:46.937                : en:Lothlorien
    02:32:59.587                : en:Caras Galadhon
    02:40:16.607                : en:The Mirror of Galadriel
    02:45:56.614                : en:The Fighting Uruk-hai
    02:47:36.839                : en:Farewell to Lorien
    02:53:00.495                : en:The Great River
    02:57:52.746                : en:Parth Galen
    03:04:20.675                : en:The Breaking of the Fellowship
    03:11:36.444                : en:The Departure of Boromir
    03:14:18.772                : en:The Road Goes Ever On...
    03:20:36.858                : en:Credits
    03:28:16.818                : en:Official Fan Club Credits

  • Peso: 119 GiB

Sinopsis

En la Tierra Media, el Señor Oscuro Saurón creó los Grandes Anillos de Poder, forjados por los herreros Elfos. Tres para los reyes Elfos, siete para los Señores Enanos, y nueve para los Hombres Mortales. Secretamente, Saurón también forjó un anillo maestro, el Anillo Único, que contiene en sí el poder para esclavizar a toda la Tierra Media. Con la ayuda de un grupo de amigos y de valientes aliados, Frodo emprende un peligroso viaje con la misión de destruir el Anillo Único. Pero el Señor Oscuro Sauron, quien creara el Anillo, envía a sus servidores para perseguir al grupo. Si Sauron lograra recuperar el Anillo, sería el final de la Tierra Media.

Latino-Ingles: Ac3 5.1 640 kb/s

Ingles: TrueHD 7.1 + DTS-HD MA 6.1 + AC3 5.1

Audio latino ingles corregido y de más calidad

Ficha técnica

Video trailer de la película

Enlaces de descarga

Rip de Bluray

Descargar El señor de los anillos La comunidad del anillo (2001) EXTENDED 4K REMUX HDR Latino – CMHDD


Aportes de DPeliculasHDmega la pass es:dpeliculashdmega.org Aportes de CinemaniaHD la pass es:cinemaniahdd.com
Guardado en : Acción , Aventura , Fantasía

Películas relacionadas

Comentarios 6
  • Kh - 03 enero, 2021

    y para el resto de los mortales habran links publicos ??? ….

  • David - 02 diciembre, 2020

    UFFFF ojala estos Links nunca mueran, lo digo porque ahora mismo no tengo memoria para guardar algo tan grande, pero la tendré en unos meses.

  • fortunato - 02 diciembre, 2020

    Muchas graciass!!!

  • fortunato - 02 diciembre, 2020

    WAUUUU! ya salió en 4K o es el rescaldado, lo subirás la trilogía? y la trilogía the Hobbit en 4K?
    Gracias por la información!

    • Dracarys - 02 diciembre, 2020

      Es 4K real y si las subiré todas