×

¿Problemas para descargar con Mozilla, EDGE? Deshabilita la opción "Abrir vinculos en una pestaña nueva" tal como lo muestra ésta imagen.

El señor de los anillos: La comunidad del anillo (2001) [Version Extendida] 4K-HDR BDRip 2160p Latino

1.747 vistas

Información de El señor de los anillos: La comunidad del anillo (2001) [Version Extendida] 4K-HDR BDRip 2160p Latino

Datos de la película

  • Calidad: 4K HDR
  • Audio: Español Latino AC3 2.0 WEB-DL - Ingles DTS 5.1 BLURAY
  • Subtitulos: Español Latino SRT- FORZADOS SRT
  • Resolución: 3840x1610P
  • Formato: MKV
  • Codec: HEVC
  • Encoder: cinemaniahdd
  • Mediainfo: Clic para Mostrar Datos Ver
  • El señor de los anillos. La comunidad del anillo (2001) [Version Extendida] 4K-HDR BDRip 2160p Latino [CNMNHDD].mkv
    Format                      : Matroska
    Format version              : Version 4
    File size                   : 39.7 GiB
    Duration                    : 3 h 48 min
    Overall bit rate mode       : Variable
    Overall bit rate            : 24.9 Mb/s
    Movie name                  : The Lord of the Rings. The Fellowship of the Ring (2001) [Version Extendida] 4K-HDR [2160p] - CinemaniaHDD.Net
    Encoded date                : UTC 2022-11-06 19:33:46
    Writing application         : mkvmerge v56.1.0 ('My Friend') 64-bit
    Writing library             : libebml v1.4.2 + libmatroska v1.6.4

    Video
    ID                          : 1
    Format                      : HEVC
    Format/Info                 : High Efficiency Video Coding
    Format profile              : Main 10@L5.1@High
    HDR format                  : SMPTE ST 2086, HDR10 compatible
    Codec ID                    : V_MPEGH/ISO/HEVC
    Duration                    : 3 h 48 min
    Bit rate                    : 21.0 Mb/s
    Width                       : 3 840 pixels
    Height                      : 1 610 pixels
    Display aspect ratio        : 2.40:1
    Frame rate mode             : Constant
    Frame rate                  : 23.976 (24000/1001) FPS
    Color space                 : YUV
    Chroma subsampling          : 4:2:0 (Type 2)
    Bit depth                   : 10 bits
    Bits/(Pixel*Frame)          : 0.142
    Stream size                 : 33.5 GiB (84%)
    Title                       : CinemaniaHDD
    Writing library             : x265 3.4+12-g9103319fc:[Windows][MSVC 1900][64 bit] 10bit
    Encoding settings           : cpuid=1176575 / frame-threads=5 / numa-pools=32 / wpp / no-pmode / no-pme / no-psnr / no-ssim / log-level=2 / input-csp=1 / input-res=3840x1610 / interlace=0 / total-frames=328432 / level-idc=51 / high-tier=1 / uhd-bd=0 / ref=4 / no-allow-non-conformance / repeat-headers / annexb / aud / hrd / info / hash=0 / no-temporal-layers / no-open-gop / min-keyint=23 / keyint=250 / gop-lookahead=0 / bframes=4 / b-adapt=2 / b-pyramid / bframe-bias=0 / rc-lookahead=25 / lookahead-slices=4 / scenecut=40 / hist-scenecut=0 / radl=0 / no-splice / no-intra-refresh / ctu=64 / min-cu-size=8 / rect / no-amp / max-tu-size=32 / tu-inter-depth=1 / tu-intra-depth=1 / limit-tu=0 / rdoq-level=2 / dynamic-rd=0.00 / no-ssim-rd / signhide / no-tskip / nr-intra=0 / nr-inter=0 / no-constrained-intra / no-strong-intra-smoothing / max-merge=3 / limit-refs=3 / limit-modes / me=3 / subme=3 / merange=57 / temporal-mvp / no-frame-dup / no-hme / weightp / no-weightb / no-analyze-src-pics / deblock=-3:-3 / no-sao / no-sao-non-deblock / rd=4 / selective-sao=0 / no-early-skip / rskip / no-fast-intra / no-tskip-fast / no-cu-lossless / no-b-intra / no-splitrd-skip / rdpenalty=0 / psy-rd=2.00 / psy-rdoq=1.00 / no-rd-refine / no-lossless / cbqpoffs=0 / crqpoffs=0 / rc=crf / crf=12.5 / qcomp=0.60 / qpstep=4 / stats-write=0 / stats-read=0 / vbv-maxrate=160000 / vbv-bufsize=160000 / vbv-init=0.9 / crf-max=0.0 / crf-min=0.0 / ipratio=1.40 / pbratio=1.30 / aq-mode=2 / aq-strength=0.80 / cutree / zone-count=0 / no-strict-cbr / qg-size=32 / no-rc-grain / qpmax=69 / qpmin=0 / no-const-vbv / sar=1 / overscan=0 / videoformat=5 / range=0 / colorprim=9 / transfer=16 / colormatrix=9 / chromaloc=1 / chromaloc-top=2 / chromaloc-bottom=2 / display-window=0 / master-display=G(13250,34500)B(7500,3000)R(34000,16000)WP(15635,16450)L(40000000,50) / cll=602,184 / min-luma=0 / max-luma=1023 / log2-max-poc-lsb=8 / vui-timing-info / vui-hrd-info / slices=1 / no-opt-qp-pps / no-opt-ref-list-length-pps / no-multi-pass-opt-rps / scenecut-bias=0.05 / hist-threshold=0.01 / no-opt-cu-delta-qp / no-aq-motion / hdr10 / hdr10-opt / no-dhdr10-opt / no-idr-recovery-sei / analysis-reuse-level=0 / analysis-save-reuse-level=0 / analysis-load-reuse-level=0 / scale-factor=0 / refine-intra=0 / refine-inter=0 / refine-mv=1 / refine-ctu-distortion=0 / no-limit-sao / ctu-info=0 / no-lowpass-dct / refine-analysis-type=0 / copy-pic=1 / max-ausize-factor=1.0 / no-dynamic-refine / no-single-sei / no-hevc-aq / no-svt / no-field / qp-adaptation-range=1.00 / no-scenecut-aware-qpconformance-window-offsets / right=0 / bottom=0 / decoder-max-rate=0
    Default                     : Yes
    Forced                      : No
    Color range                 : Limited
    Color primaries             : BT.2020
    Transfer characteristics    : PQ
    Matrix coefficients         : BT.2020 non-constant
    Mastering display color pri : Display P3
    Mastering display luminance : min: 0.0050 cd/m2, max: 4000 cd/m2
    Maximum Content Light Level : 602 cd/m2
    Maximum Frame-Average Light : 184 cd/m2

    Audio #1
    ID                          : 2
    Format                      : AC-3
    Format/Info                 : Audio Coding 3
    Commercial name             : Dolby Digital
    Codec ID                    : A_AC3
    Duration                    : 3 h 48 min
    Bit rate mode               : Constant
    Bit rate                    : 384 kb/s
    Channel(s)                  : 2 channels
    Channel layout              : L R
    Sampling rate               : 48.0 kHz
    Frame rate                  : 31.250 FPS (1536 SPF)
    Compression mode            : Lossy
    Stream size                 : 627 MiB (2%)
    Title                       : Español latino [CinemaniaHDD]
    Language                    : Spanish
    Service kind                : Complete Main
    Default                     : Yes
    Forced                      : No

    Audio #2
    ID                          : 3
    Format                      : MLP FBA 16-ch
    Format/Info                 : Meridian Lossless Packing FBA with 16-channel presentation
    Commercial name             : Dolby TrueHD with Dolby Atmos
    Codec ID                    : A_TRUEHD
    Duration                    : 3 h 48 min
    Bit rate mode               : Variable
    Bit rate                    : 2 994 kb/s
    Maximum bit rate            : 4 992 kb/s
    Channel(s)                  : 8 channels
    Channel layout              : L R C LFE Ls Rs Lb Rb
    Sampling rate               : 48.0 kHz
    Frame rate                  : 1 200.000 FPS (40 SPF)
    Compression mode            : Lossless
    Stream size                 : 4.78 GiB (12%)
    Title                       : Inglés / Dolby TrueHD [CinemaniaHDD]
    Language                    : English
    Default                     : No
    Forced                      : No
    Number of dynamic objects   : 11
    Bed channel count           : 1 channel
    Bed channel configuration   : LFE

    Audio #3
    ID                          : 4
    Format                      : AC-3
    Format/Info                 : Audio Coding 3
    Commercial name             : Dolby Digital
    Format settings             : Dolby Surround EX
    Codec ID                    : A_AC3
    Duration                    : 3 h 48 min
    Bit rate mode               : Constant
    Bit rate                    : 448 kb/s
    Channel(s)                  : 6 channels
    Channel layout              : L R C LFE Ls Rs
    Sampling rate               : 48.0 kHz
    Frame rate                  : 31.250 FPS (1536 SPF)
    Compression mode            : Lossy
    Stream size                 : 732 MiB (2%)
    Title                       : Inglés [CinemaniaHDD]
    Language                    : English
    Service kind                : Complete Main
    Default                     : No
    Forced                      : No

    Text #1
    ID                          : 5
    Format                      : UTF-8
    Codec ID                    : S_TEXT/UTF8
    Codec ID/Info               : UTF-8 Plain Text
    Duration                    : 3 h 12 min
    Bit rate                    : 0 b/s
    Count of elements           : 35
    Stream size                 : 1.00 KiB (0%)
    Title                       : Forzados [CinemaniaHDD]
    Language                    : Spanish
    Default                     : Yes
    Forced                      : Yes

    Text #2
    ID                          : 6
    Format                      : UTF-8
    Codec ID                    : S_TEXT/UTF8
    Codec ID/Info               : UTF-8 Plain Text
    Duration                    : 3 h 27 min
    Bit rate                    : 36 b/s
    Count of elements           : 1715
    Stream size                 : 55.5 KiB (0%)
    Title                       : Español latino [CinemaniaHDD]
    Language                    : Spanish
    Default                     : No
    Forced                      : No

    Text #3
    ID                          : 7
    Format                      : UTF-8
    Codec ID                    : S_TEXT/UTF8
    Codec ID/Info               : UTF-8 Plain Text
    Duration                    : 3 h 19 min
    Bit rate                    : 39 b/s
    Count of elements           : 1810
    Stream size                 : 57.6 KiB (0%)
    Title                       : Inglés [CinemaniaHDD]
    Language                    : English
    Default                     : No
    Forced                      : No

    Menu
    00:00:00.000                : Chapter 01
    00:07:36.789                : Chapter 02
    00:10:35.760                : Chapter 03
    00:15:39.813                : Chapter 04
    00:19:58.071                : Chapter 05
    00:25:32.572                : Chapter 06
    00:29:56.961                : Chapter 07
    00:32:10.470                : Chapter 08
    00:34:51.756                : Chapter 09
    00:36:18.134                : Chapter 10
    00:45:03.742                : Chapter 11
    00:46:43.884                : Chapter 12
    00:51:21.203                : Chapter 13
    00:55:12.392                : Chapter 14
    00:57:29.904                : Chapter 15
    01:03:31.474                : Chapter 16
    01:07:16.032                : Chapter 17
    01:08:53.546                : Chapter 18
    01:10:35.648                : Chapter 19
    01:15:15.344                : Chapter 20
    01:17:46.244                : Chapter 21
    01:24:11.421                : Chapter 22
    01:26:12.125                : Chapter 23
    01:29:41.376                : Chapter 24
    01:33:14.630                : Chapter 25
    01:35:54.039                : Chapter 26
    01:37:32.680                : Chapter 27
    01:45:43.392                : Chapter 01
    01:46:59.176                : Chapter 02
    01:48:42.195                : Chapter 03
    01:49:59.689                : Chapter 04
    01:53:05.542                : Chapter 05
    01:57:51.744                : Chapter 06
    02:04:17.379                : Chapter 07
    02:10:47.769                : Chapter 08
    02:20:12.292                : Chapter 09
    02:29:53.789                : Chapter 10
    02:33:06.607                : Chapter 11
    02:40:23.543                : Chapter 12
    02:46:03.299                : Chapter 13
    02:47:43.858                : Chapter 14
    02:53:07.515                : Chapter 15
    02:57:59.765                : Chapter 16
    03:04:27.694                : Chapter 17
    03:11:43.463                : Chapter 18
    03:14:25.750                : Chapter 19
    03:20:43.878                : Chapter 20
    03:28:24.713                : Chapter 21

     

  • Peso: 39.7 GiB

Sinopsis

En la Tierra Media, el Señor Oscuro Saurón creó los Grandes Anillos de Poder, forjados por los herreros Elfos. Tres para los reyes Elfos, siete para los Señores Enanos, y nueve para los Hombres Mortales. Secretamente, Saurón también forjó un anillo maestro, el Anillo Único, que contiene en sí el poder para esclavizar a toda la Tierra Media. Con la ayuda de un grupo de amigos y de valientes aliados, Frodo emprende un peligroso viaje con la misión de destruir el Anillo Único. Pero el Señor Oscuro Sauron, quien creara el Anillo, envía a sus servidores para perseguir al grupo. Si Sauron lograra recuperar el Anillo, sería el final de la Tierra Media

.

Ficha técnica

Video trailer de la película

Enlaces de descarga

Rip de Bluray

Descargar El señor de los anillos: La comunidad del anillo (2001) [Version Extendida] 4K-HDR BDRip 2160p Latino




Aportes de DPeliculasHDmega la pass es:dpeliculashdmega.org Aportes de CinemaniaHD la pass es:cinemaniahdd.com Aportes recientes:cinemaniahdd.net
Guardado en : 4K HDR , 4K UHD , Acción , Aventura , Fantasía

Películas relacionadas

  • The Lego Movie (2014) REMUX 4K HDR Latino – CMHDD

    The Lego Movie (2014) REMUX 4K HDR Latino – CMHDD

    2014
    The Lego Movie (2014) REMUX 4K HDR Latino – CMHDD

    1h 40m 2014

    Película basada en los clásicos juguetes LEGO. Emmet, el protagonista de la película, trabaja como...

    Director: Vernessa Cook

    Género: Animación

    Actores: Will Forte

  • The Lego Movie (2014) REMUX 1080p Latino – CMHDD

    The Lego Movie (2014) REMUX 1080p Latino – CMHDD

    2014
    The Lego Movie (2014) REMUX 1080p Latino – CMHDD

    1h 40m 2014

    Película basada en los clásicos juguetes LEGO. Emmet, el protagonista de la película, trabaja como...

    Director: Vernessa Cook

    Género: Animación

    Actores: Will Forte

  • Familia Nacional (2023) WEB-DL 1080p Latino

    Familia Nacional (2023) WEB-DL 1080p Latino

    2023
    Familia Nacional (2023) WEB-DL 1080p Latino

    1h 43m 2023

    Descargar Familia Nacional (2023) WEB-DL 1080p Latino. Don Poli es el patriarca de una familia disfuncional...

    Director: Marcelo Tobar

    Género: Acción

    Actores: Tadeo Tovar

descargar El señor de los anillos: La comunidad del anillo (2001) [Version Extendida] 4K-HDR BDRip 2160p Latino 4K HDR 1080p gratis, El señor de los anillos: La comunidad del anillo (2001) [Version Extendida] 4K-HDR BDRip 2160p Latino 4K HDR mega 1 link, El señor de los anillos: La comunidad del anillo (2001) [Version Extendida] 4K-HDR BDRip 2160p Latino 4K HDR pelicula completa, descargar El señor de los anillos: La comunidad del anillo (2001) [Version Extendida] 4K-HDR BDRip 2160p Latino 4K HDR gratis en mega.

El señor de los anillos: La comunidad del anillo (2001) [Version Extendida] 4K-HDR BDRip 2160p Latino pelicula full hd, El señor de los anillos: La comunidad del anillo (2001) [Version Extendida] 4K-HDR BDRip 2160p Latino mega latino, El señor de los anillos: La comunidad del anillo (2001) [Version Extendida] 4K-HDR BDRip 2160p Latino 4k latino, El señor de los anillos: La comunidad del anillo (2001) [Version Extendida] 4K-HDR BDRip 2160p Latino pelicula completa, El señor de los anillos: La comunidad del anillo (2001) [Version Extendida] 4K-HDR BDRip 2160p Latino descargar gratis, descargar El señor de los anillos: La comunidad del anillo (2001) [Version Extendida] 4K-HDR BDRip 2160p Latino pelicula latino, El señor de los anillos: La comunidad del anillo (2001) [Version Extendida] 4K-HDR BDRip 2160p Latino 1 link mega, El señor de los anillos: La comunidad del anillo (2001) [Version Extendida] 4K-HDR BDRip 2160p Latino 1 link google drive, El señor de los anillos: La comunidad del anillo (2001) [Version Extendida] 4K-HDR BDRip 2160p Latino hd 1080p latino.
Comentarios 2