×

¿Problemas para descargar con Mozilla, EDGE? Deshabilita la opción "Abrir vinculos en una pestaña nueva" tal como lo muestra ésta imagen.

El señor de los anillos: El retorno del Rey (2003) [Version Extendida] 4K-HDR BDRip 2160p Latino

1.186 vistas

Información de El señor de los anillos: El retorno del Rey (2003) [Version Extendida] 4K-HDR BDRip 2160p Latino

Datos de la película

  • Calidad: 4K HDR
  • Audio: Español Latino AC3 5.1 WEB-DL - Ingles DTS 5.1 BLURAY
  • Subtitulos: Español Latino SRT- FORZADOS SRT
  • Resolución: 3840x1610p
  • Formato: MKV
  • Codec: HEVC
  • Encoder: cinemaniahdd
  • Mediainfo: Clic para Mostrar Datos Ver
  • El señor de los anillos. El retorno del Rey (2003) [Version Extendida] 4K-HDR BDRip 2160p Latino [CNMNHDD].mkv
    Format                      : Matroska
    Format version              : Version 4
    File size                   : 52.5 GiB
    Duration                    : 4 h 23 min
    Overall bit rate mode       : Variable
    Overall bit rate            : 28.6 Mb/s
    Movie name                  : The Lord of the Rings. The Return of the King (2003) [Version Extendida] 4K-HDR [2160p] - CinemaniaHDD.Net
    Encoded date                : UTC 2022-11-06 20:36:27
    Writing application         : mkvmerge v56.1.0 ('My Friend') 64-bit
    Writing library             : libebml v1.4.2 + libmatroska v1.6.4

    Video
    ID                          : 1
    Format                      : HEVC
    Format/Info                 : High Efficiency Video Coding
    Format profile              : Main 10@L5.1@High
    HDR format                  : SMPTE ST 2086, HDR10 compatible
    Codec ID                    : V_MPEGH/ISO/HEVC
    Duration                    : 4 h 23 min
    Bit rate                    : 24.7 Mb/s
    Width                       : 3 840 pixels
    Height                      : 1 610 pixels
    Display aspect ratio        : 2.40:1
    Frame rate mode             : Constant
    Frame rate                  : 23.976 (24000/1001) FPS
    Color space                 : YUV
    Chroma subsampling          : 4:2:0 (Type 2)
    Bit depth                   : 10 bits
    Bits/(Pixel*Frame)          : 0.167
    Stream size                 : 45.4 GiB (86%)
    Title                       : CinemaniaHDD
    Writing library             : x265 3.4+12-g9103319fc:[Windows][MSVC 1900][64 bit] 10bit
    Encoding settings           : cpuid=1176575 / frame-threads=5 / numa-pools=36 / wpp / no-pmode / no-pme / no-psnr / no-ssim / log-level=2 / input-csp=1 / input-res=3840x1610 / interlace=0 / total-frames=378766 / level-idc=51 / high-tier=1 / uhd-bd=0 / ref=4 / no-allow-non-conformance / repeat-headers / annexb / aud / hrd / info / hash=0 / no-temporal-layers / no-open-gop / min-keyint=23 / keyint=250 / gop-lookahead=0 / bframes=4 / b-adapt=2 / b-pyramid / bframe-bias=0 / rc-lookahead=25 / lookahead-slices=4 / scenecut=40 / hist-scenecut=0 / radl=0 / no-splice / no-intra-refresh / ctu=64 / min-cu-size=8 / rect / no-amp / max-tu-size=32 / tu-inter-depth=1 / tu-intra-depth=1 / limit-tu=0 / rdoq-level=2 / dynamic-rd=0.00 / no-ssim-rd / signhide / no-tskip / nr-intra=0 / nr-inter=0 / no-constrained-intra / no-strong-intra-smoothing / max-merge=3 / limit-refs=3 / limit-modes / me=3 / subme=3 / merange=57 / temporal-mvp / no-frame-dup / no-hme / weightp / no-weightb / no-analyze-src-pics / deblock=-3:-3 / no-sao / no-sao-non-deblock / rd=4 / selective-sao=0 / no-early-skip / rskip / no-fast-intra / no-tskip-fast / no-cu-lossless / no-b-intra / no-splitrd-skip / rdpenalty=0 / psy-rd=2.00 / psy-rdoq=1.00 / no-rd-refine / no-lossless / cbqpoffs=0 / crqpoffs=0 / rc=crf / crf=12.5 / qcomp=0.60 / qpstep=4 / stats-write=0 / stats-read=0 / vbv-maxrate=160000 / vbv-bufsize=160000 / vbv-init=0.9 / crf-max=0.0 / crf-min=0.0 / ipratio=1.40 / pbratio=1.30 / aq-mode=2 / aq-strength=0.80 / cutree / zone-count=0 / no-strict-cbr / qg-size=32 / no-rc-grain / qpmax=69 / qpmin=0 / no-const-vbv / sar=1 / overscan=0 / videoformat=5 / range=0 / colorprim=9 / transfer=16 / colormatrix=9 / chromaloc=1 / chromaloc-top=2 / chromaloc-bottom=2 / display-window=0 / master-display=G(13250,34500)B(7500,3000)R(34000,16000)WP(15635,16450)L(40000000,50) / cll=636,103 / min-luma=0 / max-luma=1023 / log2-max-poc-lsb=8 / vui-timing-info / vui-hrd-info / slices=1 / no-opt-qp-pps / no-opt-ref-list-length-pps / no-multi-pass-opt-rps / scenecut-bias=0.05 / hist-threshold=0.01 / no-opt-cu-delta-qp / no-aq-motion / hdr10 / hdr10-opt / no-dhdr10-opt / no-idr-recovery-sei / analysis-reuse-level=0 / analysis-save-reuse-level=0 / analysis-load-reuse-level=0 / scale-factor=0 / refine-intra=0 / refine-inter=0 / refine-mv=1 / refine-ctu-distortion=0 / no-limit-sao / ctu-info=0 / no-lowpass-dct / refine-analysis-type=0 / copy-pic=1 / max-ausize-factor=1.0 / no-dynamic-refine / no-single-sei / no-hevc-aq / no-svt / no-field / qp-adaptation-range=1.00 / no-scenecut-aware-qpconformance-window-offsets / right=0 / bottom=0 / decoder-max-rate=0
    Default                     : Yes
    Forced                      : No
    Color range                 : Limited
    Color primaries             : BT.2020
    Transfer characteristics    : PQ
    Matrix coefficients         : BT.2020 non-constant
    Mastering display color pri : Display P3
    Mastering display luminance : min: 0.0050 cd/m2, max: 4000 cd/m2
    Maximum Content Light Level : 636 cd/m2
    Maximum Frame-Average Light : 103 cd/m2

    Audio #1
    ID                          : 2
    Format                      : AC-3
    Format/Info                 : Audio Coding 3
    Commercial name             : Dolby Digital
    Codec ID                    : A_AC3
    Duration                    : 4 h 23 min
    Bit rate mode               : Constant
    Bit rate                    : 384 kb/s
    Channel(s)                  : 6 channels
    Channel layout              : L R C LFE Ls Rs
    Sampling rate               : 48.0 kHz
    Frame rate                  : 31.250 FPS (1536 SPF)
    Compression mode            : Lossy
    Stream size                 : 723 MiB (1%)
    Title                       : Español latino [CinemaniaHDD]
    Language                    : Spanish
    Service kind                : Complete Main
    Default                     : Yes
    Forced                      : No

    Audio #2
    ID                          : 3
    Format                      : MLP FBA 16-ch
    Format/Info                 : Meridian Lossless Packing FBA with 16-channel presentation
    Commercial name             : Dolby TrueHD with Dolby Atmos
    Codec ID                    : A_TRUEHD
    Duration                    : 4 h 23 min
    Bit rate mode               : Variable
    Bit rate                    : 2 971 kb/s
    Maximum bit rate            : 4 515 kb/s
    Channel(s)                  : 8 channels
    Channel layout              : L R C LFE Ls Rs Lb Rb
    Sampling rate               : 48.0 kHz
    Frame rate                  : 1 200.000 FPS (40 SPF)
    Compression mode            : Lossless
    Stream size                 : 5.46 GiB (10%)
    Title                       : Inglés / Dolby TrueHD [CinemaniaHDD]
    Language                    : English
    Default                     : No
    Forced                      : No
    Number of dynamic objects   : 11
    Bed channel count           : 1 channel
    Bed channel configuration   : LFE

    Audio #3
    ID                          : 4
    Format                      : AC-3
    Format/Info                 : Audio Coding 3
    Commercial name             : Dolby Digital
    Format settings             : Dolby Surround EX
    Codec ID                    : A_AC3
    Duration                    : 4 h 23 min
    Bit rate mode               : Constant
    Bit rate                    : 448 kb/s
    Channel(s)                  : 6 channels
    Channel layout              : L R C LFE Ls Rs
    Sampling rate               : 48.0 kHz
    Frame rate                  : 31.250 FPS (1536 SPF)
    Compression mode            : Lossy
    Stream size                 : 844 MiB (2%)
    Title                       : Inglés [CinemaniaHDD]
    Language                    : English
    Service kind                : Complete Main
    Default                     : No
    Forced                      : No

    Text #1
    ID                          : 5
    Format                      : UTF-8
    Codec ID                    : S_TEXT/UTF8
    Codec ID/Info               : UTF-8 Plain Text
    Duration                    : 2 h 11 min
    Bit rate                    : 0 b/s
    Count of elements           : 4
    Stream size                 : 137 Bytes (0%)
    Title                       : Forzados [CinemaniaHDD]
    Language                    : Spanish
    Default                     : Yes
    Forced                      : Yes

    Text #2
    ID                          : 6
    Format                      : UTF-8
    Codec ID                    : S_TEXT/UTF8
    Codec ID/Info               : UTF-8 Plain Text
    Duration                    : 4 h 11 min
    Bit rate                    : 28 b/s
    Count of elements           : 1775
    Stream size                 : 51.9 KiB (0%)
    Title                       : Español latino [CinemaniaHDD]
    Language                    : Spanish
    Default                     : No
    Forced                      : No

    Text #3
    ID                          : 7
    Format                      : UTF-8
    Codec ID                    : S_TEXT/UTF8
    Codec ID/Info               : UTF-8 Plain Text
    Duration                    : 4 h 5 min
    Bit rate                    : 31 b/s
    Count of elements           : 2170
    Stream size                 : 56.7 KiB (0%)
    Title                       : Inglés [CinemaniaHDD]
    Language                    : English
    Default                     : No
    Forced                      : No

    Menu
    00:00:00.000                : Chapter 01
    00:06:24.300                : Chapter 02
    00:09:21.227                : Chapter 03
    00:11:21.430                : Chapter 04
    00:18:23.268                : Chapter 05
    00:23:04.966                : Chapter 06
    00:27:03.288                : Chapter 07
    00:29:00.655                : Chapter 08
    00:37:06.265                : Chapter 09
    00:40:02.400                : Chapter 10
    00:42:02.353                : Chapter 11
    00:47:52.160                : Chapter 12
    00:50:18.265                : Chapter 13
    00:52:18.468                : Chapter 14
    00:55:35.290                : Chapter 15
    00:59:36.364                : Chapter 16
    01:00:23.661                : Chapter 17
    01:00:50.355                : Chapter 18
    01:04:30.074                : Chapter 19
    01:07:15.823                : Chapter 20
    01:10:34.939                : Chapter 21
    01:14:54.573                : Chapter 22
    01:17:21.928                : Chapter 23
    01:19:21.590                : Chapter 24
    01:20:00.879                : Chapter 25
    01:21:26.756                : Chapter 26
    01:23:48.898                : Chapter 27
    01:29:07.467                : Chapter 28
    01:33:57.256                : Chapter 29
    01:38:07.840                : Chapter 30
    01:42:49.288                : Chapter 31
    01:45:34.202                : Chapter 32
    01:46:57.244                : Chapter 33
    01:49:24.057                : Chapter 34
    01:51:09.746                : Chapter 35
    01:58:39.403                : Chapter 36
    02:07:40.256                : Chapter 01
    02:08:43.736                : Chapter 02
    02:17:51.366                : Chapter 03
    02:19:41.476                : Chapter 04
    02:20:17.887                : Chapter 05
    02:21:51.314                : Chapter 06
    02:22:58.339                : Chapter 07
    02:29:00.201                : Chapter 08
    02:30:05.558                : Chapter 09
    02:32:30.578                : Chapter 10
    02:36:44.623                : Chapter 11
    02:38:52.084                : Chapter 12
    02:43:47.254                : Chapter 13
    02:45:17.677                : Chapter 14
    02:47:03.825                : Chapter 15
    02:47:56.419                : Chapter 16
    02:48:40.672                : Chapter 17
    02:51:16.369                : Chapter 18
    02:53:18.950                : Chapter 19
    02:54:26.017                : Chapter 20
    02:56:41.986                : Chapter 21
    02:57:34.080                : Chapter 22
    03:04:29.620                : Chapter 23
    03:06:12.347                : Chapter 24
    03:07:41.144                : Chapter 25
    03:08:31.361                : Chapter 26
    03:12:13.041                : Chapter 27
    03:16:24.667                : Chapter 28
    03:19:40.405                : Chapter 29
    03:23:14.327                : Chapter 30
    03:25:27.543                : Chapter 31
    03:26:29.897                : Chapter 32
    03:28:26.347                : Chapter 33
    03:29:00.172                : Chapter 34
    03:34:38.927                : Chapter 35
    03:36:52.311                : Chapter 36
    03:40:21.686                : Chapter 37
    03:42:44.746                : Chapter 38
    03:47:37.413                : Chapter 39
    03:52:19.362                : Chapter 40
    04:01:38.337                : Chapter 41
    04:12:45.503                : Chapter 42

     

  • Peso: 52.5 GiB

Sinopsis

Las fuerzas de Saruman han sido destruidas, y su fortaleza sitiada. Ha llegado el momento de que se decida el destino de la Tierra Media, y por primera vez en mucho tiempo, parece que hay una pequeña esperanza. La atención del señor oscuro Sauron se centra ahora en Gondor, el último reducto de los hombres, y del cual Aragorn tendrá que reclamar el trono para ocupar su puesto de rey. Pero las fuerzas de Sauron ya se preparan para lanzar el último y definitivo ataque contra el reino de Gondor, la batalla que decidirá el destino de todos. Mientras tanto, Frodo y Sam continuan su camino hacia Mordor, a la espera de que Sauron no repare en que dos pequeños Hobbits se acercan cada día más al final de su camino, el Monte del Destino.

Ficha técnica

Video trailer de la película

Enlaces de descarga

Rip de Bluray

Descargar El señor de los anillos: El retorno del Rey (2003) [Version Extendida] 4K-HDR BDRip 2160p Latino




Aportes de DPeliculasHDmega la pass es:dpeliculashdmega.org Aportes de CinemaniaHD la pass es:cinemaniahdd.com
Guardado en : 4K HDR , 4K UHD , Acción , Aventura , Fantasía

Películas relacionadas

descargar El señor de los anillos: El retorno del Rey (2003) [Version Extendida] 4K-HDR BDRip 2160p Latino 4K HDR 1080p gratis, El señor de los anillos: El retorno del Rey (2003) [Version Extendida] 4K-HDR BDRip 2160p Latino 4K HDR mega 1 link, El señor de los anillos: El retorno del Rey (2003) [Version Extendida] 4K-HDR BDRip 2160p Latino 4K HDR pelicula completa, descargar El señor de los anillos: El retorno del Rey (2003) [Version Extendida] 4K-HDR BDRip 2160p Latino 4K HDR gratis en mega.

El señor de los anillos: El retorno del Rey (2003) [Version Extendida] 4K-HDR BDRip 2160p Latino pelicula full hd, El señor de los anillos: El retorno del Rey (2003) [Version Extendida] 4K-HDR BDRip 2160p Latino mega latino, El señor de los anillos: El retorno del Rey (2003) [Version Extendida] 4K-HDR BDRip 2160p Latino 4k latino, El señor de los anillos: El retorno del Rey (2003) [Version Extendida] 4K-HDR BDRip 2160p Latino pelicula completa, El señor de los anillos: El retorno del Rey (2003) [Version Extendida] 4K-HDR BDRip 2160p Latino descargar gratis, descargar El señor de los anillos: El retorno del Rey (2003) [Version Extendida] 4K-HDR BDRip 2160p Latino pelicula latino, El señor de los anillos: El retorno del Rey (2003) [Version Extendida] 4K-HDR BDRip 2160p Latino 1 link mega, El señor de los anillos: El retorno del Rey (2003) [Version Extendida] 4K-HDR BDRip 2160p Latino 1 link google drive, El señor de los anillos: El retorno del Rey (2003) [Version Extendida] 4K-HDR BDRip 2160p Latino hd 1080p latino.
Comentarios 4
  • ALVIN SUÁREZ MALCA - 07 noviembre, 2022

    Muy buen aporte, pero al igual que la parte uno no cargan los anuncios del enlace público, por tal motivo no se puede acceder a link de descarga, por favor arreglar. Saludos.

    • CinemaniaHDD - 09 noviembre, 2022

      Hola, intentalo desde otro navegador web o usa VPN. tambien puedes usar la opcion incognito de los navegadores

  • Alejandro Salazar - 21 enero, 2022

    Buen día, no funciona el link para descargar

    • Dracarys - 21 enero, 2022

      Uptobox Online