×

¿Problemas para descargar con Mozilla, EDGE? Deshabilita la opción "Abrir vinculos en una pestaña nueva" tal como lo muestra ésta imagen.

El secreto de sus ojos (2009) Full HD 1080p Latino – CMHDD

608 vistas

Información de El secreto de sus ojos (2009) Full HD 1080p Latino – CMHDD

Datos de la película

  • Calidad:
  • Audio: Español Latino DTS 5.1 BLURAY
  • Subtitulos: No
  • Resolución: 1920x1080p
  • Formato: MKV
  • Codec: H.264
  • Encoder: Dracarys
  • Mediainfo: Clic para Mostrar Datos Ver
  • Format                      : Matroska
    Format version              : Version 4
    File size                   : 7.02 GiB
    Duration                    : 2 h 9 min
    Overall bit rate mode       : Variable
    Overall bit rate            : 7 774 kb/s
    Movie name                  : El secreto de sus ojos (2009) Full HD 1080p Latino - CMHDD
    Encoded date                : UTC 2021-01-25 21:42:21
    Writing application         : mkvmerge v51.0.0 ('I Wish') 64-bit
    Writing library             : libebml v1.4.0 + libmatroska v1.6.2

    Video
    ID                          : 1
    Format                      : AVC
    Format/Info                 : Advanced Video Codec
    Format profile              : High@L4.1
    Format settings             : CABAC / 4 Ref Frames
    Format settings, CABAC      : Yes
    Format settings, Reference  : 4 frames
    Codec ID                    : V_MPEG4/ISO/AVC
    Duration                    : 2 h 9 min
    Bit rate                    : 3 841 kb/s
    Width                       : 1 920 pixels
    Height                      : 1 080 pixels
    Display aspect ratio        : 16:9
    Frame rate mode             : Constant
    Frame rate                  : 23.976 (24000/1001) FPS
    Color space                 : YUV
    Chroma subsampling          : 4:2:0
    Bit depth                   : 8 bits
    Scan type                   : Progressive
    Bits/(Pixel*Frame)          : 0.077
    Stream size                 : 3.47 GiB (49%)
    Writing library             : x264 core 157 r2935 545de2f
    Encoding settings           : cabac=1 / ref=4 / deblock=1:0:0 / analyse=0x3:0x133 / me=tesa / subme=11 / psy=1 / psy_rd=1.00:0.00 / mixed_ref=1 / me_range=24 / chroma_me=1 / trellis=2 / 8x8dct=1 / cqm=0 / deadzone=21,11 / fast_pskip=0 / chroma_qp_offset=-2 / threads=24 / lookahead_threads=6 / sliced_threads=0 / nr=0 / decimate=1 / interlaced=0 / bluray_compat=0 / constrained_intra=0 / bframes=16 / b_pyramid=2 / b_adapt=2 / b_bias=0 / direct=3 / weightb=1 / open_gop=0 / weightp=2 / keyint=240 / keyint_min=24 / scenecut=40 / intra_refresh=0 / rc_lookahead=60 / rc=crf / mbtree=1 / crf=20.0 / qcomp=0.60 / qpmin=0 / qpmax=69 / qpstep=4 / vbv_maxrate=62500 / vbv_bufsize=78125 / crf_max=0.0 / nal_hrd=none / filler=0 / ip_ratio=1.40 / aq=1:1.00
    Default                     : Yes
    Forced                      : No
    Color range                 : Limited
    Color primaries             : BT.709
    Transfer characteristics    : BT.709
    Matrix coefficients         : BT.709

    Audio
    ID                          : 2
    Format                      : DTS XLL
    Format/Info                 : Digital Theater Systems
    Commercial name             : DTS-HD Master Audio
    Codec ID                    : A_DTS
    Duration                    : 2 h 9 min
    Bit rate mode               : Variable
    Bit rate                    : 3 930 kb/s
    Channel(s)                  : 6 channels
    Channel layout              : C L R Ls Rs LFE
    Sampling rate               : 48.0 kHz
    Frame rate                  : 93.750 FPS (512 SPF)
    Bit depth                   : 24 bits
    Compression mode            : Lossless
    Stream size                 : 3.55 GiB (51%)
    Language                    : Spanish
    Default                     : Yes
    Forced                      : No

  • Peso: 7.02 GiB

Sinopsis

Argentina. Benjamín Espósito es oficial de un Juzgado de Instrucción de Buenos Aires recién retirado. Obsesionado por un brutal asesinato ocurrido veinticinco años antes, en 1974, decide escribir una novela sobre el caso, del cual fue testigo y protagonista. Reviviendo el pasado, viene también a su memoria el recuerdo de una mujer, a quien ha amado en silencio durante todos esos años.

Ficha técnica

Video trailer de la película

Enlaces de descarga

Rip de Bluray

Descargar El secreto de sus ojos (2009) Full HD 1080p Latino – CMHDD




Aportes de DPeliculasHDmega la pass es:dpeliculashdmega.org Aportes de CinemaniaHD la pass es:cinemaniahdd.com
Guardado en : Crimen , Drama , Misterio

Películas relacionadas

descargar El secreto de sus ojos (2009) Full HD 1080p Latino – CMHDD 1080p gratis, El secreto de sus ojos (2009) Full HD 1080p Latino – CMHDD mega 1 link, El secreto de sus ojos (2009) Full HD 1080p Latino – CMHDD pelicula completa, descargar El secreto de sus ojos (2009) Full HD 1080p Latino – CMHDD gratis en mega.

El secreto de sus ojos (2009) Full HD 1080p Latino – CMHDD pelicula full hd, El secreto de sus ojos (2009) Full HD 1080p Latino – CMHDD mega latino, El secreto de sus ojos (2009) Full HD 1080p Latino – CMHDD 4k latino, El secreto de sus ojos (2009) Full HD 1080p Latino – CMHDD pelicula completa, El secreto de sus ojos (2009) Full HD 1080p Latino – CMHDD descargar gratis, descargar El secreto de sus ojos (2009) Full HD 1080p Latino – CMHDD pelicula latino, El secreto de sus ojos (2009) Full HD 1080p Latino – CMHDD 1 link mega, El secreto de sus ojos (2009) Full HD 1080p Latino – CMHDD 1 link google drive, El secreto de sus ojos (2009) Full HD 1080p Latino – CMHDD hd 1080p latino.
Comentarios 0