×

¿Problemas para descargar con Mozilla, EDGE? Deshabilita la opción "Abrir vinculos en una pestaña nueva" tal como lo muestra ésta imagen.

El sastre de la mafia (2022) AMZN Web-DL 1080p Latino

666 vistas

Información de El sastre de la mafia (2022) AMZN Web-DL 1080p Latino

Datos de la película

  • Calidad: WEBDL
  • Audio: Español Latino AC3 5.1 WEB-DL - Ingles AC3 5.1 WEB-DL
  • Subtitulos: Español Latino SRT- FORZADOS SRT
  • Resolución: 1920x960p
  • Formato: MKV
  • Codec: H.264
  • Encoder: Melkor
  • Mediainfo: Clic para Mostrar Datos Ver
  • el Sastre De La Mafia (2022) AMZN WebDL 1080p Latino.mkv
    Format                      : Matroska
    Format version              : Version 4
    File size                   : 5.79 GiB
    Duration                    : 1 h 45 min
    Overall bit rate            : 7 873 kb/s
    Movie name                  : The Outfit (2022) CinemaniaHDD.Net
    Encoded date                : UTC 2022-04-08 03:49:31
    Writing application         : mkvmerge v56.1.0 ('My Friend') 64-bit
    Writing library             : libebml v1.4.2 + libmatroska v1.6.4
    Attachments                 : CINEMANIAHD.png

    Video
    ID                          : 1
    Format                      : AVC
    Format/Info                 : Advanced Video Codec
    Format profile              : High@L4
    Format settings             : CABAC / 4 Ref Frames
    Format settings, CABAC      : Yes
    Format settings, Reference  : 4 frames
    Codec ID                    : V_MPEG4/ISO/AVC
    Duration                    : 1 h 45 min
    Bit rate mode               : Constant
    Bit rate                    : 6 847 kb/s
    Nominal bit rate            : 10 000 kb/s
    Width                       : 1 920 pixels
    Height                      : 960 pixels
    Display aspect ratio        : 2.000
    Frame rate mode             : Constant
    Frame rate                  : 23.976 (24000/1001) FPS
    Color space                 : YUV
    Chroma subsampling          : 4:2:0
    Bit depth                   : 8 bits
    Scan type                   : Progressive
    Bits/(Pixel*Frame)          : 0.155
    Stream size                 : 5.04 GiB (87%)
    Title                       : Web HD1080p [CinemaniaHDD]
    Default                     : Yes
    Forced                      : No
    Color range                 : Limited
    Color primaries             : BT.709
    Transfer characteristics    : BT.709
    Matrix coefficients         : BT.709

    Audio #1
    ID                          : 2
    Format                      : AC-3
    Format/Info                 : Audio Coding 3
    Commercial name             : Dolby Digital
    Codec ID                    : A_AC3
    Duration                    : 1 h 45 min
    Bit rate mode               : Constant
    Bit rate                    : 384 kb/s
    Channel(s)                  : 6 channels
    Channel layout              : L R C LFE Ls Rs
    Sampling rate               : 48.0 kHz
    Frame rate                  : 31.250 FPS (1536 SPF)
    Compression mode            : Lossy
    Stream size                 : 289 MiB (5%)
    Title                       : Español Latino [CinemaniaHDD]
    Language                    : Spanish
    Service kind                : Complete Main
    Default                     : Yes
    Forced                      : No

    Audio #2
    ID                          : 3
    Format                      : E-AC-3
    Format/Info                 : Enhanced AC-3
    Commercial name             : Dolby Digital Plus
    Codec ID                    : A_EAC3
    Duration                    : 1 h 45 min
    Bit rate mode               : Constant
    Bit rate                    : 640 kb/s
    Channel(s)                  : 6 channels
    Channel layout              : L R C LFE Ls Rs
    Sampling rate               : 48.0 kHz
    Frame rate                  : 31.250 FPS (1536 SPF)
    Compression mode            : Lossy
    Stream size                 : 482 MiB (8%)
    Title                       : Ingles [CinemaniaHDD]
    Language                    : English
    Service kind                : Complete Main
    Default                     : No
    Forced                      : No

    Text #1
    ID                          : 4
    Format                      : UTF-8
    Codec ID                    : S_TEXT/UTF8
    Codec ID/Info               : UTF-8 Plain Text
    Duration                    : 1 h 16 min
    Bit rate                    : 0 b/s
    Count of elements           : 5
    Stream size                 : 84.0 Bytes (0%)
    Title                       : Forzados-SRT [CinemaniaHDD]
    Language                    : Spanish
    Default                     : Yes
    Forced                      : No

    Text #2
    ID                          : 5
    Format                      : UTF-8
    Codec ID                    : S_TEXT/UTF8
    Codec ID/Info               : UTF-8 Plain Text
    Duration                    : 1 h 44 min
    Bit rate                    : 48 b/s
    Count of elements           : 1203
    Stream size                 : 37.1 KiB (0%)
    Title                       : Español-SRT [CinemaniaHDD]
    Language                    : Spanish
    Default                     : No
    Forced                      : No

    Text #3
    ID                          : 6
    Format                      : UTF-8
    Codec ID                    : S_TEXT/UTF8
    Codec ID/Info               : UTF-8 Plain Text
    Duration                    : 1 h 38 min
    Bit rate                    : 59 b/s
    Count of elements           : 1526
    Stream size                 : 42.7 KiB (0%)
    Title                       : Ingles-SRT [CinemaniaHDD]
    Language                    : English
    Default                     : No
    Forced                      : No

  • Peso: 5.79 GiB

Sinopsis

Descargar El sastre de la mafia (2022) AMZN Web-DL 1080p Latino. Leonard (Rylance), es un sastre inglés que confeccionaba trajes en la mundialmente famosa Savile Row de Londres. Después de una tragedia personal termina en Chicago, trabajando en una pequeña sastrería en una zona difícil de la ciudad donde hace ropa elegante para las únicas personas a su alrededor que pueden pagarla: una familia de gángsters.‎

Ficha técnica

  • Titulo original: The Outfit
  • Fecha de lanzamiento: 25-02-2022 (United States of America)
  • Director: Graham Moore
  • Género: Crimen, Drama

Video trailer de la película

Enlaces de descarga

Rip de Bluray

Descargar El sastre de la mafia (2022) AMZN Web-DL 1080p Latino




Aportes de DPeliculasHDmega la pass es:dpeliculashdmega.org Aportes de CinemaniaHD la pass es:cinemaniahdd.com
Guardado en : Crimen , Drama

Películas relacionadas

descargar El sastre de la mafia (2022) AMZN Web-DL 1080p Latino WEBDL 1080p gratis, El sastre de la mafia (2022) AMZN Web-DL 1080p Latino WEBDL mega 1 link, El sastre de la mafia (2022) AMZN Web-DL 1080p Latino WEBDL pelicula completa, descargar El sastre de la mafia (2022) AMZN Web-DL 1080p Latino WEBDL gratis en mega.

El sastre de la mafia (2022) AMZN Web-DL 1080p Latino pelicula full hd, El sastre de la mafia (2022) AMZN Web-DL 1080p Latino mega latino, El sastre de la mafia (2022) AMZN Web-DL 1080p Latino 4k latino, El sastre de la mafia (2022) AMZN Web-DL 1080p Latino pelicula completa, El sastre de la mafia (2022) AMZN Web-DL 1080p Latino descargar gratis, descargar El sastre de la mafia (2022) AMZN Web-DL 1080p Latino pelicula latino, El sastre de la mafia (2022) AMZN Web-DL 1080p Latino 1 link mega, El sastre de la mafia (2022) AMZN Web-DL 1080p Latino 1 link google drive, El sastre de la mafia (2022) AMZN Web-DL 1080p Latino hd 1080p latino.
Comentarios 0