El robo del siglo (2020) HMAX WEB-DL 1080p Latino

57 vistas
1 estrella2 estrellas3 estrellas4 estrellas5 estrellas (1 votos, promedio: 5,00 de 5)
Cargando...

Información de El robo del siglo (2020) HMAX WEB-DL 1080p Latino

Datos de la película

  • Calidad: WEBDL
  • Audio: Español Latino AC3 2.0
  • Subtitulos: Español Latino SRT - Ingles SRT
  • Resolución: 1920x816
  • Formato: MKV
  • Codec: H.264
  • Encoder: cinemaniahdd
  • Mediainfo: Clic para Mostrar Datos Ver
  • El Robo Del Siglo (2020) HMAX WEB-DL 1080p Latino [CNMNHDD].mkv
    Format                      : Matroska
    Format version              : Version 4
    File size                   : 6.89 GiB
    Duration                    : 1 h 54 min
    Overall bit rate mode       : Variable
    Overall bit rate            : 8 614 kb/s
    Movie name                  : El Robo Del Siglo (2020) - CinemaniaHDD.Net
    Encoded date                : UTC 2021-04-25 21:17:35
    Writing application         : mkvmerge v56.1.0 ('My Friend') 64-bit
    Writing library             : libebml v1.4.2 + libmatroska v1.6.4

    Video
    ID                          : 1
    Format                      : AVC
    Format/Info                 : Advanced Video Codec
    Format profile              : High@L4
    Format settings             : CABAC / 4 Ref Frames
    Format settings, CABAC      : Yes
    Format settings, Reference  : 4 frames
    Format settings, GOP        : M=4, N=48
    Codec ID                    : V_MPEG4/ISO/AVC
    Duration                    : 1 h 54 min
    Bit rate mode               : Variable
    Bit rate                    : 8 228 kb/s
    Maximum bit rate            : 12.4 Mb/s
    Width                       : 1 920 pixels
    Height                      : 816 pixels
    Display aspect ratio        : 2.35:1
    Frame rate mode             : Constant
    Frame rate                  : 23.976 (24000/1001) FPS
    Color space                 : YUV
    Chroma subsampling          : 4:2:0
    Bit depth                   : 8 bits
    Scan type                   : Progressive
    Bits/(Pixel*Frame)          : 0.219
    Stream size                 : 6.58 GiB (96%)
    Title                       : CinemaniaHDD
    Language                    : Spanish
    Default                     : Yes
    Forced                      : No
    Color range                 : Limited
    Color primaries             : BT.709
    Transfer characteristics    : BT.709
    Matrix coefficients         : BT.709

    Audio
    ID                          : 2
    Format                      : AC-3
    Format/Info                 : Audio Coding 3
    Commercial name             : Dolby Digital
    Codec ID                    : A_AC3
    Duration                    : 1 h 54 min
    Bit rate mode               : Constant
    Bit rate                    : 384 kb/s
    Channel(s)                  : 2 channels
    Channel layout              : L R
    Sampling rate               : 48.0 kHz
    Frame rate                  : 31.250 FPS (1536 SPF)
    Compression mode            : Lossy
    Stream size                 : 315 MiB (4%)
    Title                       : Español latino [CinemaniaHDD]
    Language                    : Spanish
    Service kind                : Complete Main
    Default                     : Yes
    Forced                      : No

    Text #1
    ID                          : 3
    Format                      : UTF-8
    Codec ID                    : S_TEXT/UTF8
    Codec ID/Info               : UTF-8 Plain Text
    Duration                    : 1 h 54 min
    Bit rate                    : 66 b/s
    Count of elements           : 1734
    Stream size                 : 55.5 KiB (0%)
    Title                       : Español latino [CC] [CinemaniaHDD]
    Language                    : Spanish
    Default                     : No
    Forced                      : No

    Text #2
    ID                          : 4
    Format                      : UTF-8
    Codec ID                    : S_TEXT/UTF8
    Codec ID/Info               : UTF-8 Plain Text
    Duration                    : 1 h 45 min
    Bit rate                    : 10 b/s
    Count of elements           : 375
    Stream size                 : 8.30 KiB (0%)
    Title                       : Inglés [CC] [CinemaniaHDD]
    Language                    : English
    Default                     : No
    Forced                      : No

     

  • Peso: 6.89 GiB

Sinopsis

Viernes 13 de enero de 2006. Los francotiradores del Grupo Halcón están a la espera de una orden. Miguel Sileo, el negociador, deja diluir las esperanzas de que Vitette, uno de los líderes de la banda de ladrones que entró a la sucursal del Banco Río de Acassuso de señales de vida. El grupo Halcón recibe la orden y entra: se encuentran con lo inesperado. Armas de juguete y una veintena de rehenes asustados los esperan dentro; no hay señales del grupo de ladrones. Mientras revisan a los rehenes para descubrir a los artífices del robo camuflados entre ellos, la policía va descubriendo que, más de la mitad de las cajas de seguridad fueron abiertas y vaciadas.

Ficha técnica

Video trailer de la película

Enlaces de descarga

Rip de Bluray

Descargar El robo del siglo (2020) HMAX WEB-DL 1080p Latino




Aportes de DPeliculasHDmega la pass es:dpeliculashdmega.org Aportes de CinemaniaHD la pass es:cinemaniahdd.com
Guardado en : Comedia , Crimen , HBOMAX , Suspenso

Películas relacionadas

  • La chica de rosa (1986) 1080p Latino

    La chica de rosa (1986) 1080p Latino

    1986
    La chica de rosa (1986) 1080p Latino

    0.0 1h 36m 1986

    Descargar La chica de rosa (1986) 1080p Latino. Andie Walsh (Molly Ringwald), una buena estudiante de...

    Director: Pamela Alch

    Género: Comedia

    Actores: Molly Ringwald

  • La chica de rosa (1986) Full HD 1080p Latino

    La chica de rosa (1986) Full HD 1080p Latino

    1986
    La chica de rosa (1986) Full HD 1080p Latino

    0.0 1h 36m 1986

    Descargar La chica de rosa (1986) Full HD 1080p Latino. Andie Walsh (Molly Ringwald), una buena estudiante...

    Director: Pamela Alch

    Género: Comedia

    Actores: Molly Ringwald

  • La chica de rosa (1986) REMUX 1080p Latino

    La chica de rosa (1986) REMUX 1080p Latino

    1986
    La chica de rosa (1986) REMUX 1080p Latino

    0.0 1h 36m 1986

    Descargar La chica de rosa (1986) REMUX 1080p Latino. Andie Walsh (Molly Ringwald), una buena estudiante...

    Director: Pamela Alch

    Género: Comedia

    Actores: Molly Ringwald

  • The Last Exorcism (2010) WEB-DL 1080p Latino

    The Last Exorcism (2010) WEB-DL 1080p Latino

    2010
    The Last Exorcism (2010) WEB-DL 1080p Latino

    5.0 1h 27m 2010

    Tras una carrera ayudando a los devotos a través de plegarias, el reverendo evangelista Cotton Marcus...

    Director: Daniel Stamm

    Género: Suspenso

    Actores: Tony Bentley

El robo del siglo (2020) HMAX WEB-DL 1080p Latino pelicula full hd, El robo del siglo (2020) HMAX WEB-DL 1080p Latino mega latino, El robo del siglo (2020) HMAX WEB-DL 1080p Latino 4k latino, El robo del siglo (2020) HMAX WEB-DL 1080p Latino pelicula completa, El robo del siglo (2020) HMAX WEB-DL 1080p Latino descargar gratis, descargar El robo del siglo (2020) HMAX WEB-DL 1080p Latino pelicula latino, El robo del siglo (2020) HMAX WEB-DL 1080p Latino 1 link mega, El robo del siglo (2020) HMAX WEB-DL 1080p Latino 1 link google drive, El robo del siglo (2020) HMAX WEB-DL 1080p Latino hd 1080p latino.
Comentarios 0