×

¿Problemas para descargar con Mozilla, EDGE? Deshabilita la opción "Abrir vinculos en una pestaña nueva" tal como lo muestra ésta imagen.

El Ritual (2017) REMUX 1080p Latino

27 vistas

Información de El Ritual (2017) REMUX 1080p Latino

Datos de la película

  • Calidad: Full 1080p
  • Audio: Se especifica abajo de la Sinopsis
  • Subtitulos: Español Latino SRT - Ingles SRT
  • Resolución: 1920x1080p
  • Formato: MKV
  • Codec: H.264
  • Encoder: CinefiloCool
  • Mediainfo: Clic para Mostrar Datos Ver
  • El Ritual (2017) REMUX 1080p Latino-CMHDD.mkv Format                      : Matroska Format version              : Version 4 File size                   : 15.2 GiB Duration                    : 1 h 34 min Overall bit rate mode       : Variable Overall bit rate            : 23.1 Mb/s Movie name                  : The Ritual (2017) CinemaniaHDD.Net Encoded date                : UTC 2023-01-20 17:33:30 Writing application         : mkvmerge v56.1.0 ('My Friend') 64-bit Writing library             : libebml v1.4.2 + libmatroska v1.6.4 Attachments                 : CINEMANIAHD.png Video ID                          : 1 Format                      : AVC Format/Info                 : Advanced Video Codec Format profile              : High@L4.1 Format settings             : CABAC / 4 Ref Frames Format settings, CABAC      : Yes Format settings, Reference  : 4 frames Format settings, GOP        : M=3, N=24 Codec ID                    : V_MPEG4/ISO/AVC Duration                    : 1 h 34 min Bit rate mode               : Variable Bit rate                    : 19.8 Mb/s Maximum bit rate            : 35.0 Mb/s Width                       : 1 920 pixels Height                      : 1 080 pixels Display aspect ratio        : 16:9 Frame rate mode             : Constant Frame rate                  : 23.976 (24000/1001) FPS Standard                    : NTSC Color space                 : YUV Chroma subsampling          : 4:2:0 Bit depth                   : 8 bits Scan type                   : Progressive Bits/(Pixel*Frame)          : 0.399 Stream size                 : 13.0 GiB (86%) Title                       : REMUX HD1080p [CinemaniaHDD] Default                     : Yes Forced                      : Yes Color range                 : Limited Color primaries             : BT.709 Transfer characteristics    : BT.709 Matrix coefficients         : BT.709 Audio #1 ID                          : 2 Format                      : AC-3 Format/Info                 : Audio Coding 3 Commercial name             : Dolby Digital Codec ID                    : A_AC3 Duration                    : 1 h 34 min Bit rate mode               : Constant Bit rate                    : 640 kb/s Channel(s)                  : 6 channels Channel layout              : L R C LFE Ls Rs Sampling rate               : 48.0 kHz Frame rate                  : 31.250 FPS (1536 SPF) Compression mode            : Lossy Stream size                 : 431 MiB (3%) Title                       : Español Latino AC3 [CinemaniaHDD] Language                    : Spanish Service kind                : Complete Main Default                     : Yes Forced                      : Yes Audio #2 ID                          : 3 Format                      : E-AC-3 Format/Info                 : Enhanced AC-3 Commercial name             : Dolby Digital Plus Codec ID                    : A_EAC3 Duration                    : 1 h 34 min Bit rate mode               : Constant Bit rate                    : 640 kb/s Channel(s)                  : 6 channels Channel layout              : L R C LFE Ls Rs Sampling rate               : 48.0 kHz Frame rate                  : 31.250 FPS (1536 SPF) Compression mode            : Lossy Stream size                 : 431 MiB (3%) Title                       : Español Latino EAC3 [CinemaniaHDD] Language                    : Spanish Service kind                : Complete Main Default                     : No Forced                      : No Audio #3 ID                          : 4 Format                      : DTS XLL Format/Info                 : Digital Theater Systems Commercial name             : DTS-HD Master Audio Codec ID                    : A_DTS Duration                    : 1 h 34 min Bit rate mode               : Variable Bit rate                    : 1 980 kb/s Channel(s)                  : 6 channels Channel layout              : C L R Ls Rs LFE Sampling rate               : 48.0 kHz Frame rate                  : 93.750 FPS (512 SPF) Bit depth                   : 16 bits Compression mode            : Lossless Stream size                 : 1.30 GiB (9%) Title                       : Ingles [CinemaniaHDD] Language                    : English Default                     : No Forced                      : No Text #1 ID                          : 5 Format                      : UTF-8 Codec ID                    : S_TEXT/UTF8 Codec ID/Info               : UTF-8 Plain Text Duration                    : 1 h 24 min Bit rate                    : 0 b/s Count of elements           : 4 Stream size                 : 94.0 Bytes (0%) Title                       : Forzados-SRT [CinemaniaHDD] Language                    : Spanish Default                     : Yes Forced                      : Yes Text #2 ID                          : 6 Format                      : UTF-8 Codec ID                    : S_TEXT/UTF8 Codec ID/Info               : UTF-8 Plain Text Duration                    : 1 h 29 min Bit rate                    : 32 b/s Count of elements           : 882 Stream size                 : 21.0 KiB (0%) Title                       : Español-SRT [CinemaniaHDD] Language                    : Spanish Default                     : No Forced                      : No Text #3 ID                          : 7 Format                      : UTF-8 Codec ID                    : S_TEXT/UTF8 Codec ID/Info               : UTF-8 Plain Text Duration                    : 1 h 26 min Bit rate                    : 38 b/s Count of elements           : 860 Stream size                 : 24.4 KiB (0%) Title                       : Ingles [CinemaniaHDD] Language                    : English Default                     : No Forced                      : No Menu 00:00:00.000                : :Chapter 01 00:07:29.449                : :Chapter 02 00:15:23.131                : :Chapter 03 00:23:16.270                : :Chapter 04 00:30:16.898                : :Chapter 05 00:38:02.822                : :Chapter 06 00:45:40.029                : :Chapter 07 00:53:25.577                : :Chapter 08 01:01:12.794                : :Chapter 09 01:09:04.849                : :Chapter 10 01:17:13.838                : :Chapter 11 01:25:05.767                : :Chapter 12
  • Peso: 15.2 GiB

Sinopsis

Descargar El Ritual (2017) REMUX 1080p Latino. Un grupo de amigos de la universidad se reúnen para emprender un viaje de senderismo por los montes de Suecia, con la finalidad de rendir homenaje a uno de ellos, muerto de forma violenta. Cuando se internan en el bosque, una presencia amenazante empieza a acosarles.

Audio Español Latino AC3 5.1 + EAC3 5.1 Web – Ingles DTS-HD 5.1 Bluray

Ficha técnica

Video trailer de la película

Enlaces de descarga

Rip de Bluray

Descargar El Ritual (2017) REMUX 1080p Latino


Aportes de DPeliculasHDmega la pass es:dpeliculashdmega.org Aportes de CinemaniaHD la pass es:cinemaniahdd.com
Guardado en : Misterio , Remux , Suspenso , Terror

Películas relacionadas

descargar El Ritual (2017) REMUX 1080p Latino Full 1080p 1080p gratis, El Ritual (2017) REMUX 1080p Latino Full 1080p mega 1 link, El Ritual (2017) REMUX 1080p Latino Full 1080p pelicula completa, descargar El Ritual (2017) REMUX 1080p Latino Full 1080p gratis en mega.

El Ritual (2017) REMUX 1080p Latino pelicula full hd, El Ritual (2017) REMUX 1080p Latino mega latino, El Ritual (2017) REMUX 1080p Latino 4k latino, El Ritual (2017) REMUX 1080p Latino pelicula completa, El Ritual (2017) REMUX 1080p Latino descargar gratis, descargar El Ritual (2017) REMUX 1080p Latino pelicula latino, El Ritual (2017) REMUX 1080p Latino 1 link mega, El Ritual (2017) REMUX 1080p Latino 1 link google drive, El Ritual (2017) REMUX 1080p Latino hd 1080p latino.
Comentarios 0