×

¿Problemas para descargar con Mozilla, EDGE? Deshabilita la opción "Abrir vinculos en una pestaña nueva" tal como lo muestra ésta imagen.

El Rey León (2019) REMUX 4K HDR Latino – CMHDD

4.357 vistas

Información de El Rey León (2019) REMUX 4K HDR Latino – CMHDD

Datos de la película

  • Calidad: 4K HDR
  • Audio: Se especifica abajo de la Sinopsis
  • Subtitulos: Español Latino PGS - Ingles PGS
  • Resolución: 3840x2160p
  • Formato: MKV
  • Codec: HEVC
  • Encoder: Dracarys
  • Mediainfo: Clic para Mostrar Datos Ver
  • Format                      : Matroska
    Format version              : Version 4
    File size                   : 50.1 GiB
    Duration                    : 1 h 58 min
    Overall bit rate mode       : Variable
    Overall bit rate            : 60.6 Mb/s
    Movie name                  : El Rey León (2019) REMUX 4K HDR Latino - CMHDD
    Encoded date                : UTC 2024-06-18 21:00:27
    Writing application         : mkvmerge v47.0.0 ('Black Flag') 64-bit
    Writing library             : libebml v1.3.10 + libmatroska v1.5.2

    Video
    ID                          : 1
    Format                      : HEVC
    Format/Info                 : High Efficiency Video Coding
    Format profile              : Main 10@L5.1@High
    HDR format                  : SMPTE ST 2086, HDR10 compatible
    Codec ID                    : V_MPEGH/ISO/HEVC
    Duration                    : 1 h 58 min
    Bit rate                    : 54.3 Mb/s
    Width                       : 3 840 pixels
    Height                      : 2 160 pixels
    Display aspect ratio        : 16:9
    Frame rate mode             : Constant
    Frame rate                  : 23.976 (24000/1001) FPS
    Color space                 : YUV
    Chroma subsampling          : 4:2:0 (Type 2)
    Bit depth                   : 10 bits
    Bits/(Pixel*Frame)          : 0.273
    Stream size                 : 44.9 GiB (90%)
    Writing library             : ATEME Titan File 3.9.0 (4.9.0.0)        
    Default                     : Yes
    Forced                      : No
    Color range                 : Limited
    Color primaries             : BT.2020
    Transfer characteristics    : PQ
    Matrix coefficients         : BT.2020 non-constant
    Mastering display color pri : Display P3
    Mastering display luminance : min: 0.0001 cd/m2, max: 1000 cd/m2

    Audio #1
    ID                          : 2
    Format                      : AC-3
    Format/Info                 : Audio Coding 3
    Commercial name             : Dolby Digital
    Codec ID                    : A_AC3
    Duration                    : 1 h 58 min
    Bit rate mode               : Constant
    Bit rate                    : 640 kb/s
    Channel(s)                  : 6 channels
    Channel layout              : L R C LFE Ls Rs
    Sampling rate               : 48.0 kHz
    Frame rate                  : 31.250 FPS (1536 SPF)
    Compression mode            : Lossy
    Delay relative to video     : 6 ms
    Stream size                 : 541 MiB (1%)
    Language                    : Spanish
    Service kind                : Complete Main
    Default                     : Yes
    Forced                      : Yes

    Audio #2
    ID                          : 3
    Format                      : AC-3
    Format/Info                 : Audio Coding 3
    Commercial name             : Dolby Digital
    Codec ID                    : A_AC3
    Duration                    : 1 h 58 min
    Bit rate mode               : Constant
    Bit rate                    : 640 kb/s
    Channel(s)                  : 6 channels
    Channel layout              : L R C LFE Ls Rs
    Sampling rate               : 48.0 kHz
    Frame rate                  : 31.250 FPS (1536 SPF)
    Compression mode            : Lossy
    Delay relative to video     : 153 ms
    Stream size                 : 541 MiB (1%)
    Language                    : English
    Service kind                : Complete Main
    Default                     : No
    Forced                      : No

    Audio #3
    ID                          : 4
    Format                      : MLP FBA 16-ch
    Format/Info                 : Meridian Lossless Packing FBA with 16-channel presentation
    Commercial name             : Dolby TrueHD with Dolby Atmos
    Codec ID                    : A_TRUEHD
    Duration                    : 1 h 58 min
    Bit rate mode               : Variable
    Bit rate                    : 4 930 kb/s
    Maximum bit rate            : 7 332 kb/s
    Channel(s)                  : 8 channels
    Channel layout              : L R C LFE Ls Rs Lb Rb
    Sampling rate               : 48.0 kHz
    Frame rate                  : 1 200.000 FPS (40 SPF)
    Compression mode            : Lossless
    Delay relative to video     : 125 ms
    Stream size                 : 4.07 GiB (8%)
    Language                    : English
    Default                     : No
    Forced                      : No
    Number of dynamic objects   : 13
    Bed channel count           : 1 channel
    Bed channel configuration   : LFE

    Text #1
    ID                          : 5
    Format                      : UTF-8
    Codec ID                    : S_TEXT/UTF8
    Codec ID/Info               : UTF-8 Plain Text
    Duration                    : 1 h 46 min
    Bit rate                    : 53 b/s
    Count of elements           : 1371
    Stream size                 : 41.4 KiB (0%)
    Language                    : Spanish
    Default                     : No
    Forced                      : No

    Text #2
    ID                          : 6
    Format                      : PGS
    Muxing mode                 : zlib
    Codec ID                    : S_HDMV/PGS
    Codec ID/Info               : Picture based subtitle format used on BDs/HD-DVDs
    Duration                    : 1 h 46 min
    Bit rate                    : 32.7 kb/s
    Count of elements           : 2742
    Stream size                 : 24.8 MiB (0%)
    Language                    : Spanish
    Default                     : No
    Forced                      : No

    Menu
    00:00:00.000                : en:"Circle Of Life/Nants' Ingonyama"
    00:04:50.499                : en:"Life's Not Fair"
    00:10:51.067                : en:"Everything The Light Touches"
    00:17:47.692                : en:"I Just Can't Wait To Be King"
    00:23:53.015                : en:Elephant Graveyard
    00:30:00.132                : en:Under The Stars
    00:33:05.066                : en:"Be Prepared"
    00:37:09.310                : en:Stampede
    00:43:42.912                : en:Scar Takes Over
    00:50:47.336                : en:Timon And Pumbaa
    00:55:02.716                : en:"Hakuna Matata"
    00:59:48.460                : en:Scar's Kingdom
    01:06:27.233                : en:"Line Of Indifference"
    01:14:32.093                : en:"The Lion Sleeps Tonight"
    01:18:26.410                : en:"Can You Feel The Love Tonight"
    01:23:07.900                : en:"He Lives In You"
    01:28:04.654                : en:"Spirit"
    01:33:10.877                : en:Simba Confronts Scar
    01:37:13.745                : en:Battle For Pride Rock
    01:44:39.190                : en:The Rightful King
    01:47:47.336                : en:End Credits/"Never Too Late"

     

  • Peso: 13.0 GiB

Sinopsis

Descargar El Rey León (2019) 4K UHD HDR Latino. Un remake del clásico animado de Disney de 1994 ‘El rey león’ que estará dirigido por Jon Favreu. Simba (Donald Glover) es el hijo del rey de los leones, Mufasa, y heredero de todo el reino. Pero cuando su padre es brutalmente asesinado por su tío Scar, decidirá huir, dejando vía libre para que su tío tome el puesto de su padre como líder de la manada. En su camino, Simba se encuentra con el suricato Timón y el jabalí Pumba, que le enseñarán a vivir la vida sin preocupaciones. Pero el joven león se verá obligado a decidir entre su vida libre de problemas o su destino como rey .

Audio Español Latino AC3 5.1 Bluray – Ingles AC3 5.1 + TrueHD 7.1 Bluray

Ficha técnica

Video trailer de la película

Enlaces de descarga

Rip de Bluray

Descargar El Rey León (2019) REMUX 4K HDR Latino – CMHDD




Aportes de DPeliculasHDmega la pass es:dpeliculashdmega.org Aportes de CinemaniaHD la pass es:cinemaniahdd.com Aportes recientes:cinemaniahdd.net
Guardado en : 4K HDR , 4K UHD , Animación , Aventura , Drama , Familia

Películas relacionadas

  • Un Heroe Anonimo (2024) 1080p Latino-CMHDD

    Un Heroe Anonimo (2024) 1080p Latino-CMHDD

    2024
    Un Heroe Anonimo (2024) 1080p Latino-CMHDD

    1h 53m 2024

    Descargar Un Heroe Anonimo (2024) 1080p Latino-CMHDD. Basada en una extraordinaria historia real, la...

    Director: Richard Ramsey

    Género: Drama

    Actores: Vin Morreale Jr

  • Un Heroe Anonimo (2024) Full HD 1080p Latino-CMHDD

    Un Heroe Anonimo (2024) Full HD 1080p Latino-CMHDD

    2024
    Un Heroe Anonimo (2024) Full HD 1080p Latino-CMHDD

    1h 53m 2024

    Descargar Un Heroe Anonimo (2024) Full HD 1080p Latino-CMHDD Basada en una extraordinaria historia real,...

    Director: Richard Ramsey

    Género: Drama

    Actores: Vin Morreale Jr

  • Un Heroe Anonimo (2024) REMUX 1080p Latino-CMHDD

    Un Heroe Anonimo (2024) REMUX 1080p Latino-CMHDD

    2024
    Un Heroe Anonimo (2024) REMUX 1080p Latino-CMHDD

    1h 53m 2024

    Descargar Un Heroe Anonimo (2024) REMUX 1080p Latino-CMHDD. Basada en una extraordinaria historia real,...

    Director: Richard Ramsey

    Género: Drama

    Actores: Vin Morreale Jr

  • Sausage Party (2016) REMUX 1080p Latino – CMHDD

    Sausage Party (2016) REMUX 1080p Latino – CMHDD

    2016
    Sausage Party (2016) REMUX 1080p Latino – CMHDD

    1h 29m 2016

    La trama sigue el drama de una salchicha y sus amigos, otros productos de supermercado, cuando descubren...

    Director: Scott Armstrong

    Género: Animación

    Actores: Vincent Tong

descargar El Rey León (2019) REMUX 4K HDR Latino – CMHDD 4K HDR 1080p gratis, El Rey León (2019) REMUX 4K HDR Latino – CMHDD 4K HDR mega 1 link, El Rey León (2019) REMUX 4K HDR Latino – CMHDD 4K HDR pelicula completa, descargar El Rey León (2019) REMUX 4K HDR Latino – CMHDD 4K HDR gratis en mega.

El Rey León (2019) REMUX 4K HDR Latino – CMHDD pelicula full hd, El Rey León (2019) REMUX 4K HDR Latino – CMHDD mega latino, El Rey León (2019) REMUX 4K HDR Latino – CMHDD 4k latino, El Rey León (2019) REMUX 4K HDR Latino – CMHDD pelicula completa, El Rey León (2019) REMUX 4K HDR Latino – CMHDD descargar gratis, descargar El Rey León (2019) REMUX 4K HDR Latino – CMHDD pelicula latino, El Rey León (2019) REMUX 4K HDR Latino – CMHDD 1 link mega, El Rey León (2019) REMUX 4K HDR Latino – CMHDD 1 link google drive, El Rey León (2019) REMUX 4K HDR Latino – CMHDD hd 1080p latino.
Comentarios 0