×

¿Problemas para descargar con Mozilla, EDGE? Deshabilita la opción "Abrir vinculos en una pestaña nueva" tal como lo muestra ésta imagen.

El Rey León (2019) REMUX 1080p Latino

3.143 vistas

Información de El Rey León (2019) REMUX 1080p Latino

Datos de la película

  • Calidad: Full 1080p
  • Audio: Español Latino AC3 5.1 BLURAY - DTS-HD Master 7.1 BLURAY
  • Subtitulos: Español Latino PGS - Ingles PGS
  • Resolución: 1920x1080
  • Formato: MKV
  • Codec: H.264
  • Encoder: cinemaniahdd
  • Mediainfo: Clic para Mostrar Datos Ver
  • El Rey León (2019) REMUX 1080p Latino.mkv
    Format                      : Matroska
    Format version              : Version 4
    File size                   : 28.8 GiB
    Duration                    : 1 h 58 min
    Overall bit rate mode       : Variable
    Overall bit rate            : 34.8 Mb/s
    Movie name                  : El Rey León (2019) - CinemaniaHDD.Net
    Encoded date                : UTC 2019-10-10 22:45:10
    Writing application         : mkvmerge v38.0.0 ('The Silent Type') 64-bit
    Writing library             : libebml v1.3.9 + libmatroska v1.5.2
    01 Subido por               : CinemaniaHDD
    02 Descargado de            : www.cinemaniahdd.net

    Video
    ID                          : 1
    Format                      : AVC
    Format/Info                 : Advanced Video Codec
    Format profile              : High@L4.1
    Format settings             : CABAC / 4 Ref Frames
    Format settings, CABAC      : Yes
    Format settings, ReFrames   : 4 frames
    Codec ID                    : V_MPEG4/ISO/AVC
    Duration                    : 1 h 58 min
    Bit rate mode               : Variable
    Bit rate                    : 27.6 Mb/s
    Maximum bit rate            : 35.0 Mb/s
    Width                       : 1 920 pixels
    Height                      : 1 080 pixels
    Display aspect ratio        : 16:9
    Frame rate mode             : Constant
    Frame rate                  : 23.976 (24000/1001) FPS
    Color space                 : YUV
    Chroma subsampling          : 4:2:0
    Bit depth                   : 8 bits
    Scan type                   : Progressive
    Bits/(Pixel*Frame)          : 0.554
    Stream size                 : 22.8 GiB (79%)
    Title                       : CinemaniaHDD
    Default                     : Yes
    Forced                      : No

    Audio #1
    ID                          : 2
    Format                      : AC-3
    Format/Info                 : Audio Coding 3
    Commercial name             : Dolby Digital
    Codec ID                    : A_AC3
    Duration                    : 1 h 58 min
    Bit rate mode               : Constant
    Bit rate                    : 640 kb/s
    Channel(s)                  : 6 channels
    Channel layout              : L R C LFE Ls Rs
    Sampling rate               : 48.0 kHz
    Frame rate                  : 31.250 FPS (1536 SPF)
    Bit depth                   : 16 bits
    Compression mode            : Lossy
    Stream size                 : 541 MiB (2%)
    Title                       : Español latino [CinemaniaHDD]
    Language                    : Spanish
    Service kind                : Complete Main
    Default                     : Yes
    Forced                      : No

    Audio #2
    ID                          : 3
    Format                      : DTS
    Format/Info                 : Digital Theater Systems
    Codec ID                    : A_DTS
    Duration                    : 1 h 58 min
    Bit rate mode               : Constant
    Bit rate                    : 1 509 kb/s
    Channel(s)                  : 6 channels
    Channel layout              : C L R Ls Rs LFE
    Sampling rate               : 48.0 kHz
    Frame rate                  : 93.750 FPS (512 SPF)
    Bit depth                   : 24 bits
    Compression mode            : Lossy
    Stream size                 : 1.25 GiB (4%)
    Title                       : Ingles [CinemaniaHDD] - core
    Language                    : English
    Default                     : No
    Forced                      : No

    Audio #3
    ID                          : 4
    Format                      : DTS XLL
    Format/Info                 : Digital Theater Systems
    Commercial name             : DTS-HD Master Audio
    Codec ID                    : A_DTS
    Duration                    : 1 h 58 min
    Bit rate mode               : Variable
    Bit rate                    : 5 091 kb/s
    Channel(s)                  : 8 channels
    Channel layout              : C L R LFE Lb Rb Lss Rss
    Sampling rate               : 48.0 kHz
    Frame rate                  : 93.750 FPS (512 SPF)
    Bit depth                   : 24 bits
    Compression mode            : Lossless
    Stream size                 : 4.21 GiB (15%)
    Title                       : Ingles [CinemaniaHDD]
    Language                    : English
    Default                     : No
    Forced                      : No

    Text #1
    ID                          : 5
    Format                      : UTF-8
    Codec ID                    : S_TEXT/UTF8
    Codec ID/Info               : UTF-8 Plain Text
    Duration                    : 1 h 43 min
    Bit rate                    : 0 b/s
    Count of elements           : 2
    Stream size                 : 24.0 Bytes (0%)
    Title                       : Forzados [CinemaniaHDD]
    Language                    : Spanish
    Default                     : Yes
    Forced                      : Yes

    Text #2
    ID                          : 6
    Format                      : PGS
    Muxing mode                 : zlib
    Codec ID                    : S_HDMV/PGS
    Codec ID/Info               : Picture based subtitle format used on BDs/HD-DVDs
    Duration                    : 1 h 52 min
    Bit rate                    : 37.5 kb/s
    Count of elements           : 3420
    Stream size                 : 30.0 MiB (0%)
    Title                       : Ingles [CinemaniaHDD]
    Language                    : English
    Default                     : No
    Forced                      : No

    Text #3
    ID                          : 7
    Format                      : PGS
    Muxing mode                 : zlib
    Codec ID                    : S_HDMV/PGS
    Codec ID/Info               : Picture based subtitle format used on BDs/HD-DVDs
    Duration                    : 1 h 46 min
    Bit rate                    : 32.7 kb/s
    Count of elements           : 2742
    Stream size                 : 24.8 MiB (0%)
    Title                       : Español latino [CinemaniaHDD]
    Language                    : Spanish
    Default                     : No
    Forced                      : No

    Text #4
    ID                          : 8
    Format                      : PGS
    Muxing mode                 : zlib
    Codec ID                    : S_HDMV/PGS
    Codec ID/Info               : Picture based subtitle format used on BDs/HD-DVDs
    Duration                    : 1 h 46 min
    Bit rate                    : 18.6 kb/s
    Count of elements           : 1061
    Stream size                 : 14.1 MiB (0%)
    Title                       : Letra Musical [CinemaniaHDD]
    Language                    : Spanish
    Default                     : No
    Forced                      : No

    Text #5
    ID                          : 9
    Format                      : PGS
    Muxing mode                 : zlib
    Codec ID                    : S_HDMV/PGS
    Codec ID/Info               : Picture based subtitle format used on BDs/HD-DVDs
    Duration                    : 1 h 43 min
    Bit rate                    : 20 b/s
    Count of elements           : 4
    Stream size                 : 15.5 KiB (0%)
    Title                       : Forzados [CinemaniaHDD]
    Language                    : Spanish
    Default                     : No
    Forced                      : No

    Menu
    00:00:00.000                : :Chapter 01
    00:04:50.498                : :Chapter 02
    00:10:51.067                : :Chapter 03
    00:17:47.691                : :Chapter 04
    00:23:53.014                : :Chapter 05
    00:30:00.131                : :Chapter 06
    00:33:05.066                : :Chapter 07
    00:37:09.310                : :Chapter 08
    00:43:42.911                : :Chapter 09
    00:50:47.335                : :Chapter 10
    00:55:02.716                : :Chapter 11
    00:59:48.459                : :Chapter 12
    01:06:27.233                : :Chapter 13
    01:14:32.092                : :Chapter 14
    01:18:26.410                : :Chapter 15
    01:23:07.899                : :Chapter 16
    01:28:04.654                : :Chapter 17
    01:33:10.876                : :Chapter 18
    01:37:13.744                : :Chapter 19
    01:44:39.189                : :Chapter 20
    01:47:47.335                : :Chapter 21

     

  • Peso: 28.8 GiB

Sinopsis

Descargar El Rey León (2019) REMUX 1080p Latino, Un remake del clásico animado de Disney de 1994 EL REY LEÓN de Disney, dirigida por Jon Favreau, nos lleva a la sabana africana donde un futuro rey ha nacido. Simba idolatra a su padre, el rey Mufasa, y está entusiasmado con su destino real. Pero no todos en el reino celebran la llegada del nuevo cachorro. Scar, el hermano de Mufasa y antiguo heredero al trono, tiene sus propios planes. La batalla de La Roca Del Rey se ve teñida de traición, tragedia y drama, y acaba forzando a Simba al exilio. Con la ayuda de una curiosa pareja de amigos nuevos, Simba tendrá que arreglárselas para crecer y recuperar lo que legítimamente le corresponde. El estelar reparto incluye a: Donald Glover como Simba, Beyoncé Knowles-Carter en el papel de Nala, James Earl Jones como Mufasa, Chiwetel Ejiofor como Scar, Seth Rogen como Pumba y Billy Eichner en el papel de Timón.

Ficha técnica

Video trailer de la película

Enlaces de descarga

Rip de Bluray

Descargar El Rey León (2019) REMUX 1080p Latino




Aportes de DPeliculasHDmega la pass es:dpeliculashdmega.org Aportes de CinemaniaHD la pass es:cinemaniahdd.com
Guardado en : Acción , Animación , Aventura , Drama , Familia , Remux

Películas relacionadas

  • Blonde (2022) NF WEB-DL 1080p Latino

    Blonde (2022) NF WEB-DL 1080p Latino

    2022
    Blonde (2022) NF WEB-DL 1080p Latino

    2h 46m 2022

    Descargar Blonde (2022) NF WEB-DL 1080p Latino. Basada en el bestseller de la cinco veces finalista al...

    Director: Kristin Bree Calabrese

    Género: Drama

    Actores: Xavier Samuel

  • Borrego: Sal Del Camino (2022) REMUX 1080p Latino

    Borrego: Sal Del Camino (2022) REMUX 1080p Latino

    2022
    Borrego: Sal Del Camino (2022) REMUX 1080p Latino

    1h 42m 2022

    Descargar Borrego: Sal Del Camino (2022) REMUX 1080p Latino. Una joven botánica se traslada a un pequeño...

    Director: Jesse Harris

    Género: Crimen

    Actores: Olivia Trujillo

  • Tren Bala (2022) WEB-DL 4K UHD HDR Latino

    Tren Bala (2022) WEB-DL 4K UHD HDR Latino

    2022
    Tren Bala (2022) WEB-DL 4K UHD HDR Latino

    2h 7m 2022

    Descargar Tren Bala (2022) WEB-DL 4K UHD HDR Latino. El desafortunado asesino "Catarina" está decidido...

    Director: Paul Barry

    Género: 4K HDR

    Actores: Zooey Miyoshi

  • Tren Bala (2022) AMZN WEB-DL 1080p Latino

    Tren Bala (2022) AMZN WEB-DL 1080p Latino

    2022
    Tren Bala (2022) AMZN WEB-DL 1080p Latino

    2h 7m 2022

    Descargar Tren Bala (2022) AMZN WEB-DL 1080p Latino. Cinco asesinos a sueldo se encuentran a bordo de...

    Director: Paul Barry

    Género: Acción

    Actores: Zooey Miyoshi

descargar El Rey León (2019) REMUX 1080p Latino Full 1080p 1080p gratis, El Rey León (2019) REMUX 1080p Latino Full 1080p mega 1 link, El Rey León (2019) REMUX 1080p Latino Full 1080p pelicula completa, descargar El Rey León (2019) REMUX 1080p Latino Full 1080p gratis en mega.

El Rey León (2019) REMUX 1080p Latino pelicula full hd, El Rey León (2019) REMUX 1080p Latino mega latino, El Rey León (2019) REMUX 1080p Latino 4k latino, El Rey León (2019) REMUX 1080p Latino pelicula completa, El Rey León (2019) REMUX 1080p Latino descargar gratis, descargar El Rey León (2019) REMUX 1080p Latino pelicula latino, El Rey León (2019) REMUX 1080p Latino 1 link mega, El Rey León (2019) REMUX 1080p Latino 1 link google drive, El Rey León (2019) REMUX 1080p Latino hd 1080p latino.
Comentarios 0