×

¿Problemas para descargar con Mozilla, EDGE? Deshabilita la opción "Abrir vinculos en una pestaña nueva" tal como lo muestra ésta imagen.

El Rey Escorpión (2002) 4K UHD HDR Latino

1.687 vistas

Información de El Rey Escorpión (2002) 4K UHD HDR Latino

el rey escorpion 54364 poster

Datos de la película

  • Calidad: 4K HDR
  • Audio: Español Latino AC3 5.1 BLURAY - Ingles AC3 5.1 BLURAY
  • Subtitulos: Español PGS - Ingles PGS
  • Resolución: 3840x1634p
  • Formato: MKV
  • Codec: HEVC
  • Encoder: CinefiloCool
  • Mediainfo: Clic para Mostrar Datos Ver
  • El Rey Escorpion (2002) UHD HDR Latino.mkv
    Format                      : Matroska
    Format version              : Version 4
    File size                   : 27.5 GiB
    Duration                    : 1 h 31 min
    Overall bit rate            : 43.1 Mb/s
    Movie name                  : CinemaniaHDD.Net
    Encoded date                : UTC 2019-06-23 06:46:41
    Writing application         : mkvmerge v30.1.0 ('Forever And More') 64-bit
    Writing library             : libebml v1.3.6 + libmatroska v1.4.9
    Attachments                 : CINEMANIAHD.png

    Video
    ID                          : 1
    Format                      : HEVC
    Format/Info                 : High Efficiency Video Coding
    Commercial name             : HDR10
    Format profile              : Main 10@L5.1@High
    Codec ID                    : V_MPEGH/ISO/HEVC
    Duration                    : 1 h 31 min
    Bit rate                    : 42.0 Mb/s
    Width                       : 3 840 pixels
    Height                      : 1 634 pixels
    Display aspect ratio        : 2.35:1
    Frame rate mode             : Constant
    Frame rate                  : 23.976 (24000/1001) FPS
    Color space                 : YUV
    Chroma subsampling          : 4:2:0 (Type 2)
    Bit depth                   : 10 bits
    Bits/(Pixel*Frame)          : 0.279
    Stream size                 : 26.8 GiB (97%)
    Title                       : 2160p HDR [Bluray]
    Writing library             : x265 3.0_Au+10-74a8672ea4f7:[Windows][GCC 8.2.1][64 bit] 10bit
    Encoding settings           : cpuid=1111039 / frame-threads=16 / numa-pools=24,24,24,24 / wpp / no-pmode / no-pme / no-psnr / no-ssim / log-level=2 / input-csp=1 / input-res=3840x1634 / interlace=0 / total-frames=0 / level-idc=51 / high-tier=1 / uhd-bd=0 / ref=3 / no-allow-non-conformance / repeat-headers / annexb / aud / hrd / info / hash=0 / no-temporal-layers / no-open-gop / min-keyint=1 / keyint=24 / gop-lookahead=0 / bframes=4 / b-adapt=2 / b-pyramid / bframe-bias=0 / rc-lookahead=25 / lookahead-slices=4 / scenecut=40 / radl=0 / no-splice / no-intra-refresh / ctu=64 / min-cu-size=8 / no-rect / no-amp / max-tu-size=32 / tu-inter-depth=1 / tu-intra-depth=1 / limit-tu=0 / rdoq-level=0 / dynamic-rd=0.00 / no-ssim-rd / signhide / no-tskip / nr-intra=0 / nr-inter=0 / no-constrained-intra / strong-intra-smoothing / max-merge=2 / limit-refs=3 / no-limit-modes / me=1 / subme=2 / merange=57 / temporal-mvp / weightp / no-weightb / no-analyze-src-pics / deblock=0:0 / no-sao / no-sao-non-deblock / rd=3 / no-early-skip / rskip / no-fast-intra / no-tskip-fast / no-cu-lossless / no-b-intra / no-splitrd-skip / rdpenalty=0 / psy-rd=2.00 / psy-rdoq=0.00 / no-rd-refine / no-lossless / cbqpoffs=0 / crqpoffs=0 / rc=crf / crf=16.0 / qcomp=0.60 / qpstep=4 / stats-write=0 / stats-read=0 / vbv-maxrate=160000 / vbv-bufsize=160000 / vbv-init=0.9 / crf-max=0.0 / crf-min=0.0 / ipratio=1.40 / pbratio=1.30 / aq-mode=1 / aq-strength=1.00 / cutree / zone-count=0 / no-strict-cbr / qg-size=32 / no-rc-grain / qpmax=69 / qpmin=0 / no-const-vbv / sar=1 / overscan=0 / videoformat=5 / range=0 / colorprim=9 / transfer=16 / colormatrix=9 / chromaloc=1 / chromaloc-top=2 / chromaloc-bottom=2 / display-window=0 / master-display=G(13250,34500)B(7500,3000)R(34000,16000)WP(15635,16450)L(10000000,50) / max-cll=1000,295 / min-luma=0 / max-luma=1023 / log2-max-poc-lsb=8 / vui-timing-info / vui-hrd-info / slices=1 / opt-qp-pps / opt-ref-list-length-pps / no-multi-pass-opt-rps / scenecut-bias=0.05 / no-opt-cu-delta-qp / no-aq-motion / hdr / hdr-opt / no-dhdr10-opt / no-idr-recovery-sei / analysis-reuse-level=5 / scale-factor=0 / refine-intra=0 / refine-inter=0 / refine-mv=0 / refine-ctu-distortion=0 / no-limit-sao / ctu-info=0 / no-lowpass-dct / refine-analysis-type=-2059230896 / copy-pic=1 / max-ausize-factor=1.0 / no-dynamic-refine / no-single-sei / no-hevc-aq / no-svt / qp-adaptation-range=1.00
    Default                     : Yes
    Forced                      : No
    Color range                 : Limited
    Color primaries             : BT.2020
    Transfer characteristics    : PQ
    Matrix coefficients         : BT.2020 non-constant
    Mastering display color pri : Display P3
    Mastering display luminance : min: 0.0050 cd/m2, max: 1000 cd/m2
    Maximum Content Light Level : 1000 cd/m2
    Maximum Frame-Average Light : 295 cd/m2

    Audio #1
    ID                          : 2
    Format                      : AC-3
    Format/Info                 : Audio Coding 3
    Commercial name             : Dolby Digital
    Codec ID                    : A_AC3
    Duration                    : 1 h 31 min
    Bit rate mode               : Constant
    Bit rate                    : 448 kb/s
    Channel(s)                  : 6 channels
    Channel layout              : L R C LFE Ls Rs
    Sampling rate               : 48.0 kHz
    Frame rate                  : 31.250 FPS (1536 SPF)
    Bit depth                   : 16 bits
    Compression mode            : Lossy
    Stream size                 : 293 MiB (1%)
    Title                       : AC3_5.1_Bluray_Esp
    Language                    : Spanish
    Service kind                : Complete Main
    Default                     : Yes
    Forced                      : Yes

    Audio #2
    ID                          : 3
    Format                      : AC-3
    Format/Info                 : Audio Coding 3
    Commercial name             : Dolby Digital
    Codec ID                    : A_AC3
    Duration                    : 1 h 31 min
    Bit rate mode               : Constant
    Bit rate                    : 640 kb/s
    Channel(s)                  : 6 channels
    Channel layout              : L R C LFE Ls Rs
    Sampling rate               : 48.0 kHz
    Frame rate                  : 31.250 FPS (1536 SPF)
    Bit depth                   : 16 bits
    Compression mode            : Lossy
    Stream size                 : 418 MiB (1%)
    Title                       : AC3_5.1_Bluray_Eng
    Language                    : English
    Service kind                : Complete Main
    Default                     : No
    Forced                      : No

    Text #1
    ID                          : 4
    Format                      : PGS
    Muxing mode                 : zlib
    Codec ID                    : S_HDMV/PGS
    Codec ID/Info               : Picture based subtitle format used on BDs/HD-DVDs
    Duration                    : 1 h 29 min
    Bit rate                    : 20.4 kb/s
    Count of elements           : 1262
    Stream size                 : 13.1 MiB (0%)
    Title                       : Sub_Esp [PGS]
    Language                    : Spanish
    Default                     : No
    Forced                      : No

    Text #2
    ID                          : 5
    Format                      : PGS
    Muxing mode                 : zlib
    Codec ID                    : S_HDMV/PGS
    Codec ID/Info               : Picture based subtitle format used on BDs/HD-DVDs
    Duration                    : 1 h 29 min
    Bit rate                    : 21.9 kb/s
    Count of elements           : 1424
    Stream size                 : 14.0 MiB (0%)
    Title                       : Sub_Eng [PGS]
    Language                    : English
    Default                     : No
    Forced                      : No

    Menu
    00:00:00.000                : en:Chapter 01
    00:03:46.976                : en:Chapter 02
    00:05:02.802                : en:Chapter 03
    00:08:31.844                : en:Chapter 04
    00:11:33.442                : en:Chapter 05
    00:15:58.540                : en:Chapter 06
    00:21:33.625                : en:Chapter 07
    00:27:38.907                : en:Chapter 08
    00:29:48.495                : en:Chapter 09
    00:32:51.928                : en:Chapter 10
    00:39:10.765                : en:Chapter 11
    00:45:15.003                : en:Chapter 12
    00:50:59.347                : en:Chapter 13
    00:56:10.784                : en:Chapter 14
    01:03:40.942                : en:Chapter 15
    01:06:49.588                : en:Chapter 16
    01:11:34.790                : en:Chapter 17
    01:19:40.108                : en:Chapter 18
    01:21:42.147                : en:Chapter 19
    01:24:41.159                : en:Chapter 20

  • Peso: 27.5 GiB

Sinopsis

Descargar El Rey Escorpión (2002) 4K UHD HDR Latino. La historia se sitúa hace 5000 años en la célebre ciudad de Gomorrah, en la cual un malvado gobernador decide arrasar con todas las tribus nómadas del desierto. Las pocas tribús que sobreviven, que por naturaleza nunca han sido aliadas, deben unirse o morir. Sabiendo que su enemigo confía en las predicciones de un brujo, contratan a un afamado asesino, Mathayus, para que liquide al vidente. Tras infiltrarse en el campamento enemigo, Mathayus descubre que el brujo es una bella mujer. En lugar de asesinarla la conduce a los páramos del desierto profundo, sabiendo que los hombres del gobernador harán cualquier cosa con tal de rescatarla y llevarla de nuevo a su campamento. Gravemente herido tras la batalla, Mathayus debe encontrar la fuerza para llevar a sus exhautos aliados de vuelta a Gomorrah para luchar en la batalla final.

Ficha técnica

Video trailer de la película

Enlaces de descarga

Rip de Bluray

Descargar El Rey Escorpión (2002) 4K UHD HDR Latino




Aportes de DPeliculasHDmega la pass es:dpeliculashdmega.org Aportes de CinemaniaHD la pass es:cinemaniahdd.com Aportes recientes:cinemaniahdd.net
Guardado en : 4K HDR , 4K UHD , Acción , Aventura , Fantasía

Películas relacionadas

  • 57 Seconds (2023) AMZN WEB-DL 1080p Latino

    57 Seconds (2023) AMZN WEB-DL 1080p Latino

    2023
    57 Seconds (2023) AMZN WEB-DL 1080p Latino

    1h 39m 2023

    Cuando un blogger de tecnología consigue una entrevista con un gurú de la tecnología y detiene un...

    Director: Taylor DiMarco

    Género: Acción

    Actores: Valerie E. Lamb

  • The Bodyguard (1992) 1080p Latino-CMHDD

    The Bodyguard (1992) 1080p Latino-CMHDD

    1992
    The Bodyguard (1992) 1080p Latino-CMHDD

    2h 9m 1992

    Descargar The Bodyguard (1992) 1080p Latino-CMHDD. Una cantante famosa que recibe constantes cartas anónimas...

    Director: Mick Jackson

    Género: Acción

    Actores: Whitney Houston

  • The Bodyguard (1992) Full HD 1080p Latino-CMHDD

    The Bodyguard (1992) Full HD 1080p Latino-CMHDD

    1992
    The Bodyguard (1992) Full HD 1080p Latino-CMHDD

    2h 9m 1992

    Descargar The Bodyguard (1992) Full HD 1080p Latino-CMHDD. Una cantante famosa que recibe constantes...

    Director: Mick Jackson

    Género: Acción

    Actores: Whitney Houston

  • The Bodyguard (1992) REMUX 1080p Latino-CMHDD

    The Bodyguard (1992) REMUX 1080p Latino-CMHDD

    1992
    The Bodyguard (1992) REMUX 1080p Latino-CMHDD

    2h 9m 1992

    Descargar The Bodyguard (1992) REMUX 1080p Latino-CMHDD. Una cantante famosa que recibe constantes cartas...

    Director: Mick Jackson

    Género: Acción

    Actores: Whitney Houston

  • Jaque Mate (2024) AMZN 4K-HDR WEB-DL 2160p Latino

    Jaque Mate (2024) AMZN 4K-HDR WEB-DL 2160p Latino

    2024
    Jaque Mate (2024) AMZN 4K-HDR WEB-DL 2160p Latino

    1h 44m 2024

    Duque, un agente secreto internacional retirado hace años luego un traumático suceso, se ve obligado...

    Director: Jorge Nisco

    Género: 4K HDR

    Actores: Tsahi Halevi

descargar El Rey Escorpión (2002) 4K UHD HDR Latino 4K HDR 1080p gratis, El Rey Escorpión (2002) 4K UHD HDR Latino 4K HDR mega 1 link, El Rey Escorpión (2002) 4K UHD HDR Latino 4K HDR pelicula completa, descargar El Rey Escorpión (2002) 4K UHD HDR Latino 4K HDR gratis en mega.

El Rey Escorpión (2002) 4K UHD HDR Latino pelicula full hd, El Rey Escorpión (2002) 4K UHD HDR Latino mega latino, El Rey Escorpión (2002) 4K UHD HDR Latino 4k latino, El Rey Escorpión (2002) 4K UHD HDR Latino pelicula completa, El Rey Escorpión (2002) 4K UHD HDR Latino descargar gratis, descargar El Rey Escorpión (2002) 4K UHD HDR Latino pelicula latino, El Rey Escorpión (2002) 4K UHD HDR Latino 1 link mega, El Rey Escorpión (2002) 4K UHD HDR Latino 1 link google drive, El Rey Escorpión (2002) 4K UHD HDR Latino hd 1080p latino.
Comentarios 0