El reverendo (2017) Full 1080p Latino

1.151 vistas
1 estrella2 estrellas3 estrellas4 estrellas5 estrellas (3 votos, promedio: 2,00 de 5)
Cargando…

Información de El reverendo (2017) Full 1080p Latino

Datos de la película

  • Calidad: Full 1080p
  • Audio: Español Latino AC3 5.1 DVD - Ingles DTS 5.1 BLURAY
  • Subtitulos: Español Latino PGS - Ingles PGS
  • Resolución: 1920x1080p
  • Formato: MKV
  • Codec: H.264
  • Encoder: CinefiloCool
  • Mediainfo: Clic para Mostrar Datos Ver
  • El Reverendo (2017) Full 1080p Latino.mkv
    Format                      : Matroska
    Format version              : Version 4 / Version 2
    File size                   : 3.31 GiB
    Duration                    : 1 h 53 min
    Overall bit rate            : 4 190 kb/s
    Movie name                  : CinemaniaHDD.Net
    Encoded date                : UTC 2018-10-16 01:13:15 / UTC 2018-10-15T06:15:37Z
    Writing application         : mkvmerge v25.0.0 ('Prog Noir') 64-bit
    Writing library             : libebml v1.3.6 + libmatroska v1.4.9 / Lavf57.7.2

    Video
    ID                          : 1
    Format                      : AVC
    Format/Info                 : Advanced Video Codec
    Format profile              : [email protected]
    Format settings             : CABAC / 4 Ref Frames
    Format settings, CABAC      : Yes
    Format settings, RefFrames  : 4 frames
    Codec ID                    : V_MPEG4/ISO/AVC
    Duration                    : 1 h 53 min
    Bit rate                    : 2 214 kb/s
    Width                       : 1 920 pixels
    Height                      : 1 080 pixels
    Display aspect ratio        : 16:9
    Frame rate mode             : Constant
    Frame rate                  : 23.976 (24000/1001) FPS
    Color space                 : YUV
    Chroma subsampling          : 4:2:0
    Bit depth                   : 8 bits
    Scan type                   : Progressive
    Bits/(Pixel*Frame)          : 0.045
    Stream size                 : 1.75 GiB (53%)
    Title                       : Full HD1080p [bluray]
    Writing library             : x264 core 155 r2893 b00bcaf
    Encoding settings           : cabac=1 / ref=4 / deblock=1:0:0 / analyse=0x3:0x133 / me=esa / subme=10 / psy=1 / psy_rd=1.00:0.00 / mixed_ref=1 / me_range=24 / chroma_me=1 / trellis=2 / 8x8dct=1 / cqm=0 / deadzone=21,11 / fast_pskip=1 / chroma_qp_offset=-2 / threads=34 / lookahead_threads=5 / sliced_threads=0 / nr=0 / decimate=1 / interlaced=0 / bluray_compat=0 / constrained_intra=0 / bframes=8 / b_pyramid=2 / b_adapt=2 / b_bias=0 / direct=3 / weightb=1 / open_gop=0 / weightp=2 / keyint=240 / keyint_min=24 / scenecut=40 / intra_refresh=0 / rc_lookahead=60 / rc=crf / mbtree=1 / crf=20.0 / qcomp=0.60 / qpmin=0 / qpmax=69 / qpstep=4 / vbv_maxrate=62500 / vbv_bufsize=78125 / crf_max=0.0 / nal_hrd=none / filler=0 / ip_ratio=1.40 / aq=1:1.00
    Default                     : Yes
    Forced                      : No
    Color range                 : Limited
    Color primaries             : BT.709
    Transfer characteristics    : BT.709
    Matrix coefficients         : BT.709
    Statistics Tags Issue       : mkvmerge v25.0.0 ('Prog Noir') 64-bit 2018-10-16 01:13:15 / mkvmerge v25.0.0 ('Prog Noir') 64-bit 2018-10-16 01:13:15 / UTC 2018-10-15T06:15:37Z
    FromStats_BitRate           : 2257773
    FromStats_Duration          : 01:53:13.829000000
    FromStats_FrameCount        : 162889
    FromStats_StreamSize        : 1917366283

    Audio #1
    ID                          : 2
    Format                      : AC-3
    Format/Info                 : Audio Coding 3
    Format settings, Endianness : Big
    Codec ID                    : A_AC3
    Duration                    : 1 h 53 min
    Bit rate mode               : Constant
    Bit rate                    : 384 kb/s
    Channel(s)                  : 6 channels
    Channel positions           : Front: L C R, Side: L R, LFE
    Sampling rate               : 48.0 kHz
    Frame rate                  : 31.250 FPS (1536 SPF)
    Bit depth                   : 16 bits
    Compression mode            : Lossy
    Stream size                 : 311 MiB (9%)
    Title                       : AC3_5.1_DVD_Esp
    Language                    : Spanish
    Service kind                : Complete Main
    Default                     : Yes
    Forced                      : No
    Statistics Tags Issue       : mkvmerge v25.0.0 ('Prog Noir') 64-bit 2018-10-16 01:13:15 / mkvmerge v25.0.0 ('Prog Noir') 64-bit 2018-10-16 01:13:15 / UTC 2018-10-15T06:15:37Z
    FromStats_BitRate           : 384000
    FromStats_Duration          : 01:53:05.824000000
    FromStats_FrameCount        : 212057
    FromStats_StreamSize        : 325719552

    Audio #2
    ID                          : 3
    Format                      : DTS
    Format/Info                 : Digital Theater Systems
    Mode                        : 16
    Format settings, Endianness : Big
    Codec ID                    : A_DTS
    Duration                    : 1 h 53 min
    Bit rate mode               : Constant
    Bit rate                    : 1 509 kb/s
    Channel(s)                  : 6 channels
    Channel positions           : Front: L C R, Side: L R, LFE
    Sampling rate               : 48.0 kHz
    Frame rate                  : 93.750 FPS (512 SPF)
    Bit depth                   : 24 bits
    Compression mode            : Lossy
    Stream size                 : 1.19 GiB (36%)
    Title                       : DTS_5.1_Bluray_Eng
    Language                    : English
    Default                     : No
    Forced                      : No
    Statistics Tags Issue       : mkvmerge v25.0.0 ('Prog Noir') 64-bit 2018-10-16 01:13:15 / mkvmerge v25.0.0 ('Prog Noir') 64-bit 2018-10-16 01:13:15 / UTC 2018-10-15T06:15:37Z
    FromStats_BitRate           : 1508999
    FromStats_Duration          : 01:53:13.835000000
    FromStats_FrameCount        : 636922
    FromStats_StreamSize        : 1281487064

    Text #1
    ID                          : 4
    Format                      : PGS
    Muxing mode                 : zlib
    Codec ID                    : S_HDMV/PGS
    Codec ID/Info               : Picture based subtitle format used on BDs/HD-DVDs
    Title                       : Sub_Esp [PGS]
    Language                    : Spanish
    Default                     : No
    Forced                      : No
    Statistics Tags Issue       : mkvmerge v25.0.0 ('Prog Noir') 64-bit 2018-10-16 01:13:15 / mkvmerge v25.0.0 ('Prog Noir') 64-bit 2018-10-16 01:13:15 / UTC 2018-10-15T06:15:37Z
    FromStats_BitRate           : 36067
    FromStats_Duration          : 01:47:58.639000000
    FromStats_FrameCount        : 2446
    FromStats_StreamSize        : 29208396

    Text #2
    ID                          : 5
    Format                      : PGS
    Muxing mode                 : zlib
    Codec ID                    : S_HDMV/PGS
    Codec ID/Info               : Picture based subtitle format used on BDs/HD-DVDs
    Title                       : sub_Eng [PGS]
    Language                    : English
    Default                     : No
    Forced                      : No
    Statistics Tags Issue       : mkvmerge v25.0.0 ('Prog Noir') 64-bit 2018-10-16 01:13:15 / mkvmerge v25.0.0 ('Prog Noir') 64-bit 2018-10-16 01:13:15 / UTC 2018-10-15T06:15:37Z
    FromStats_BitRate           : 41258
    FromStats_Duration          : 01:51:36.565000000
    FromStats_FrameCount        : 2810
    FromStats_StreamSize        : 34536021

    Menu
    00:00:00.000                : :Chapter 1
    00:07:32.744                : :Chapter 2
    00:08:48.486                : :Chapter 3
    00:21:52.853                : :Chapter 4
    00:30:52.726                : :Chapter 5
    00:36:41.950                : :Chapter 6
    00:41:54.262                : :Chapter 7
    00:50:03.042                : :Chapter 8
    00:55:18.482                : :Chapter 9
    01:04:40.794                : :Chapter 10
    01:11:00.006                : :Chapter 11
    01:16:19.366                : :Chapter 12
    01:25:24.119                : :Chapter 13
    01:30:49.486                : :Chapter 14
    01:38:48.965                : :Chapter 15
    01:45:22.525                : :Chapter 16

  • Peso: 3.31 GiB

Sinopsis

Descargar El reverendo [First Reformed] (2017) 1080p Latino; Mega, Google Drive. El encuentro con un activista y su esposa embarazada (Amanda Seyfried) radicaliza la ideología de un pastor evangélico (Ethan Hawke), un antiguo capellán del ejército todavía marcado por la muerte de su hijo en Irak, que dirige una pequeña iglesia en el norte del estado de Nueva York.

Nota:
La fecha de estreno original es 2017, aunque en muchos paises se haya estrenado hasta 2018.
No, No esta mal el Encoding, la relacion de aspecto es 1.34:1 (4:3) en lugar de la comunmente usada 2.39:1.

 

Contraseña para descomprimir: Cinemaniahdd.com (“C” Mayuscula)

Ficha técnica

Video trailer de la película

Enlaces de descarga

Rip de Bluray

Descargar El reverendo (2017) Full 1080p Latino




Aportes de DPeliculasHDmega la pass es:dpeliculashdmega.org Aportes de CinemaniaHD la pass es:cinemaniahdd.com

Películas relacionadas

  • El Vacio (2018) Temporada 1 NF 1080p Latino

    2018
    El Vacio (2018) Temporada 1 NF 1080p Latino

    0.0 0h 25m 2018

    Tres adolescentes despiertan en un reino extraño lleno de portales mágicos, enigmas desconcertantes...

    Director: Vito Viscomi

    Género: Animación

    Actores: Mark Hildreth

  • Wolf Warrior 2 (2017) 1080p Latino

    2017
    Wolf Warrior 2 (2017) 1080p Latino

    0.0 2h 6m 2017

    Secuela de la película de acción exitosa "Wolf Warrior" (2015) La operación más peligrosa de las...

    Director: Wu Jing

    Género: Acción

    Actores: Yu Qian

  • The Front Runner (2018) Full 1080p Latino

    2018
    The Front Runner (2018) Full 1080p Latino

    0.0 1h 53m 2018

    Narra la campaña presidencial del senador estadounidense Gary Hart, que tuvo lugar en 1988, momento...

    Director: Jason Reitman

    Género: Drama

    Actores: William Walker

  • Robin Hood orígenes (2018) Full 1080p Latino

    2018
    Robin Hood orígenes (2018) Full 1080p Latino

    0.0 1h 56m 2018

    Cuando el joven Robin Hood (Taron Egerton) regresa a su hogar, endurecido, tras luchar como guerrero...

    Director: Otto Bathurst

    Género: Acción

    Actores: Yasen Atour

Comentarios 0