El resplandor (1980) Full 1080p Latino

1.493 vistas
1 estrella2 estrellas3 estrellas4 estrellas5 estrellas (2 votos, promedio: 5,00 de 5)
Cargando…

Información de El resplandor (1980) Full 1080p Latino

Datos de la película

  • Calidad: Full 1080p
  • Audio: Español Latino AC3 5.1 BLURAY - Ingles AC3 5.1 BLURAY
  • Subtitulos: Español Latino PGS - Ingles PGS
  • Resolución: 1920x1080p
  • Formato: MKV
  • Codec: H.264
  • Encoder: Dracarys
  • Mediainfo: Clic para Mostrar Datos Ver
  • Format                                   : Matroska
    Format version                           : Version 4 / Version 2
    File size                                : 9.26 GiB
    Duration                                 : 2 h 23 min
    Overall bit rate                         : 9 223 kb/s
    Movie name                               : CinemaniaHDD.net
    Encoded date                             : UTC 2018-11-23 01:34:00 / UTC 2018-11-22T01:38:48Z
    Writing application                      : mkvmerge v15.0.0 ('Duel with the Devil') 64-bit
    Writing library                          : libebml v1.3.5 + libmatroska v1.4.5 / Lavf57.7.2

    Video
    ID                                       : 1
    Format                                   : AVC
    Format/Info                              : Advanced Video Codec
    Format profile                           : High@L4.1
    Format settings                          : CABAC / 4 Ref Frames
    Format settings, CABAC                   : Yes
    Format settings, RefFrames               : 4 frames
    Codec ID                                 : V_MPEG4/ISO/AVC
    Duration                                 : 2 h 23 min
    Bit rate                                 : 7 759 kb/s
    Width                                    : 1 920 pixels
    Height                                   : 1 080 pixels
    Display aspect ratio                     : 16:9
    Frame rate mode                          : Constant
    Frame rate                               : 23.976 (24000/1001) FPS
    Color space                              : YUV
    Chroma subsampling                       : 4:2:0
    Bit depth                                : 8 bits
    Scan type                                : Progressive
    Bits/(Pixel*Frame)                       : 0.156
    Stream size                              : 7.79 GiB (84%)
    Writing library                          : x264 core 148 r2708 86b7198
    Encoding settings                        : cabac=1 / ref=4 / deblock=1:0:0 / analyse=0x3:0x133 / me=esa / subme=10 / psy=1 / psy_rd=1.00:0.00 / mixed_ref=1 / me_range=24 / chroma_me=1 / trellis=2 / 8x8dct=1 / cqm=0 / deadzone=21,11 / fast_pskip=1 / chroma_qp_offset=-2 / threads=34 / lookahead_threads=5 / sliced_threads=0 / nr=0 / decimate=1 / interlaced=0 / bluray_compat=0 / constrained_intra=0 / bframes=8 / b_pyramid=2 / b_adapt=2 / b_bias=0 / direct=3 / weightb=1 / open_gop=0 / weightp=2 / keyint=240 / keyint_min=24 / scenecut=40 / intra_refresh=0 / rc_lookahead=60 / rc=crf / mbtree=1 / crf=20.0 / qcomp=0.60 / qpmin=0 / qpmax=69 / qpstep=4 / vbv_maxrate=62500 / vbv_bufsize=78125 / crf_max=0.0 / nal_hrd=none / filler=0 / ip_ratio=1.40 / aq=1:1.00
    Language                                 : English
    Default                                  : Yes
    Forced                                   : No
    Color range                              : Limited
    Color primaries                          : BT.709
    Transfer characteristics                 : BT.709
    Matrix coefficients                      : BT.709
    Statistics Tags Issue                    : mkvmerge v15.0.0 ('Duel with the Devil') 64-bit 2018-11-23 01:34:00 / mkvmerge v15.0.0 ('Duel with the Devil') 64-bit 2018-11-23 01:34:00 / UTC 2018-11-22T01:38:48Z
    FromStats_BitRate                        : 7921179
    FromStats_Duration                       : 02:23:46.118000000
    FromStats_FrameCount                     : 206820
    FromStats_StreamSize                     : 8541128285

    Audio #1
    ID                                       : 2
    Format                                   : AC-3
    Format/Info                              : Audio Coding 3
    Format settings, Endianness              : Big
    Codec ID                                 : A_AC3
    Duration                                 : 2 h 23 min
    Bit rate mode                            : Constant
    Bit rate                                 : 640 kb/s
    Channel(s)                               : 6 channels
    Channel positions                        : Front: L C R, Side: L R, LFE
    Sampling rate                            : 48.0 kHz
    Frame rate                               : 31.250 FPS (1536 SPF)
    Bit depth                                : 16 bits
    Compression mode                         : Lossy
    Stream size                              : 658 MiB (7%)
    Language                                 : Spanish
    Service kind                             : Complete Main
    Default                                  : Yes
    Forced                                   : No
    Statistics Tags Issue                    : mkvmerge v15.0.0 ('Duel with the Devil') 64-bit 2018-11-23 01:34:00 / mkvmerge v15.0.0 ('Duel with the Devil') 64-bit 2018-11-23 01:34:00 / UTC 2018-11-22T01:38:48Z
    FromStats_BitRate                        : 640000
    FromStats_Duration                       : 02:23:46.144000000
    FromStats_FrameCount                     : 269567
    FromStats_StreamSize                     : 690091520

    Audio #2
    ID                                       : 3
    Format                                   : AC-3
    Format/Info                              : Audio Coding 3
    Format settings, Endianness              : Big
    Codec ID                                 : A_AC3
    Duration                                 : 2 h 23 min
    Bit rate mode                            : Constant
    Bit rate                                 : 640 kb/s
    Channel(s)                               : 6 channels
    Channel positions                        : Front: L C R, Side: L R, LFE
    Sampling rate                            : 48.0 kHz
    Frame rate                               : 31.250 FPS (1536 SPF)
    Bit depth                                : 16 bits
    Compression mode                         : Lossy
    Stream size                              : 658 MiB (7%)
    Language                                 : English
    Service kind                             : Complete Main
    Default                                  : No
    Forced                                   : No
    Statistics Tags Issue                    : mkvmerge v15.0.0 ('Duel with the Devil') 64-bit 2018-11-23 01:34:00 / mkvmerge v15.0.0 ('Duel with the Devil') 64-bit 2018-11-23 01:34:00 / UTC 2018-11-22T01:38:48Z
    FromStats_BitRate                        : 640000
    FromStats_Duration                       : 02:23:46.144000000
    FromStats_FrameCount                     : 269567
    FromStats_StreamSize                     : 690091520

    Text #1
    ID                                       : 4
    Format                                   : PGS
    Muxing mode                              : zlib
    Codec ID                                 : S_HDMV/PGS
    Codec ID/Info                            : Picture based subtitle format used on BDs/HD-DVDs
    Language                                 : English
    Default                                  : No
    Forced                                   : No
    Statistics Tags Issue                    : mkvmerge v15.0.0 ('Duel with the Devil') 64-bit 2018-11-23 01:34:00 / mkvmerge v15.0.0 ('Duel with the Devil') 64-bit 2018-11-23 01:34:00 / UTC 2018-11-22T01:38:48Z
    FromStats_BitRate                        : 24482
    FromStats_Duration                       : 02:20:32.633000000
    FromStats_FrameCount                     : 3045
    FromStats_StreamSize                     : 25806610

    Text #2
    ID                                       : 5
    Format                                   : PGS
    Muxing mode                              : zlib
    Codec ID                                 : S_HDMV/PGS
    Codec ID/Info                            : Picture based subtitle format used on BDs/HD-DVDs
    Language                                 : Spanish
    Default                                  : No
    Forced                                   : No
    Statistics Tags Issue                    : mkvmerge v15.0.0 ('Duel with the Devil') 64-bit 2018-11-23 01:34:00 / mkvmerge v15.0.0 ('Duel with the Devil') 64-bit 2018-11-23 01:34:00 / UTC 2018-11-22T01:38:48Z
    FromStats_BitRate                        : 19439
    FromStats_Duration                       : 02:20:44.103000000
    FromStats_FrameCount                     : 2629
    FromStats_StreamSize                     : 20518527

    Menu
    00:00:00.000                             : :Chapter 1
    00:03:00.847                             : :Chapter 2
    00:05:05.639                             : :Chapter 3
    00:10:34.467                             : :Chapter 4
    00:12:07.894                             : :Chapter 5
    00:14:24.697                             : :Chapter 6
    00:17:38.391                             : :Chapter 7
    00:20:31.230                             : :Chapter 8
    00:24:58.998                             : :Chapter 9
    00:28:52.064                             : :Chapter 10
    00:34:10.549                             : :Chapter 11
    00:40:29.260                             : :Chapter 12
    00:46:01.425                             : :Chapter 13
    00:46:52.643                             : :Chapter 14
    00:49:17.788                             : :Chapter 15
    00:51:16.574                             : :Chapter 16
    00:57:02.252                             : :Chapter 17
    00:58:37.180                             : :Chapter 18
    01:02:37.587                             : :Chapter 19
    01:06:06.129                             : :Chapter 20
    01:09:01.137                             : :Chapter 21
    01:16:52.775                             : :Chapter 22
    01:22:19.101                             : :Chapter 23
    01:25:30.292                             : :Chapter 24
    01:31:41.496                             : :Chapter 25
    01:34:04.305                             : :Chapter 26
    01:35:49.077                             : :Chapter 27
    01:39:30.965                             : :Chapter 28
    01:43:50.391                             : :Chapter 29
    01:49:26.894                             : :Chapter 30
    01:54:24.858                             : :Chapter 31
    01:58:45.118                             : :Chapter 32
    02:01:09.929                             : :Chapter 33
    02:05:30.523                             : :Chapter 34
    02:07:33.146                             : :Chapter 35
    02:10:23.983                             : :Chapter 36
    02:12:10.423                             : :Chapter 37
    02:15:03.762                             : :Chapter 38
    02:18:57.496                             : :Chapter 39
    02:21:17.970                             : :Chapter 40

     

  • Peso: 9.26 GiB

Sinopsis

Jack Torrance se traslada, junto a su mujer y a su hijo, al impresionante hotel Overlook, en Colorado, para encargarse del mantenimiento del mismo durante la temporada invernal, en la que permanece cerrado y aislado por la nieve. Su idea es escribir su novela al tiempo que cuida de las instalaciones durante esos largos y solitarios meses de invierno, pero desde su llegada al hotel, Jack comienza a padecer inquietantes transtornos de personalidad, al mismo tiempo que en el lugar comienzan a suceder diversos fenómenos paranormales.

Ficha técnica

Video trailer de la película

Enlaces de descarga

Rip de Bluray

Descargar El resplandor (1980) Full 1080p Latino




Aportes de DPeliculasHDmega la pass es:dpeliculashdmega.org Aportes de CinemaniaHD la pass es:cinemaniahdd.com

Películas relacionadas

  • Matar o morir (2018) 1080p Subtitulado

    2018
    Matar o morir (2018) 1080p Subtitulado

    5.0 1h 41m 2018

    Descargar Matar o morir [Peppermint] (2018) 1080p Subtitulado, Mega, Google Drive. LRiley North (Jennifer...

    Director: Pierre Morel

    Género: Acción

    Actores: YaYa Gosselin

  • Ni en tus sueños (2010) Full 1080p Latino

    2010
    Ni en tus sueños (2010) Full 1080p Latino

    0.0 1h 44m 2010

    Descargar Ni en tus sueños (2010) Full 1080p Latino, Mega, Google Drive. Kirk (Jay Baruchel, "Tropic...

    Director: Richard L. Fox

    Género: Comedia

    Actores: Yan Xi

  • La Chica de La Capa Roja (2011) Full 1080p Latino

    2011
    La Chica de La Capa Roja (2011) Full 1080p Latino

    4.7 1h 40m 2011

    Descargar La Chica de La Capa Roja (2011) Full 1080p Latino, Mega, Google Drive. La joven Valerie se...

    Director: Kimi Webber

    Género: Fantasía

    Actores: Virginia Madsen

  • La Chica de La Capa Roja (2011) 1080p Latino

    2011
    La Chica de La Capa Roja (2011) 1080p Latino

    0.0 1h 40m 2011

    Descargar La Chica de La Capa Roja (2011) 1080p Latino, Mega, Google Drive. La joven Valerie se encuentra...

    Director: Kimi Webber

    Género: Fantasía

    Actores: Virginia Madsen

Comentarios 1
  • Mercenario - 23 noviembre, 2018

    Muchas gracias, es muy difícil conseguirla en esta calidad 👍