×

¿Problemas para descargar con Mozilla, EDGE? Deshabilita la opción "Abrir vinculos en una pestaña nueva" tal como lo muestra ésta imagen.

El regreso del héroe (2018) REMUX 1080p Latino

125 vistas

Información de El regreso del héroe (2018) REMUX 1080p Latino

Datos de la película

  • Calidad: Full 1080p
  • Audio: Se especifica abajo de la Sinopsis
  • Subtitulos: Español Latino SRT- FORZADOS SRT
  • Resolución: 1920x1080p
  • Formato: MKV
  • Codec: H.264
  • Encoder: Melkor
  • Mediainfo: Clic para Mostrar Datos Ver
  • El Regreso Del Heroe (2018) REMUX 1080p Latino.mkv
    Format                      : Matroska
    Format version              : Version 4
    File size                   : 25.4 GiB
    Duration                    : 1 h 30 min
    Overall bit rate mode       : Variable
    Overall bit rate            : 40.2 Mb/s
    Movie name                  : Le Retour Du Heros (2018) CinemaniaHDD.Net
    Encoded date                : UTC 2021-08-03 05:49:26
    Writing application         : mkvmerge v56.1.0 ('My Friend') 64-bit
    Writing library             : libebml v1.4.2 + libmatroska v1.6.4
    Attachments                 : CINEMANIAHD.png

    Video
    ID                          : 1
    ID in the original source m : 4113 (0x1011)
    Format                      : AVC
    Format/Info                 : Advanced Video Codec
    Format profile              : High@L4.1
    Format settings             : CABAC / 3 Ref Frames
    Format settings, CABAC      : Yes
    Format settings, Reference  : 3 frames
    Codec ID                    : V_MPEG4/ISO/AVC
    Duration                    : 1 h 30 min
    Bit rate mode               : Variable
    Bit rate                    : 37.0 Mb/s
    Maximum bit rate            : 39.0 Mb/s
    Width                       : 1 920 pixels
    Height                      : 1 080 pixels
    Display aspect ratio        : 16:9
    Frame rate mode             : Constant
    Frame rate                  : 23.976 (24000/1001) FPS
    Color space                 : YUV
    Chroma subsampling          : 4:2:0
    Bit depth                   : 8 bits
    Scan type                   : Progressive
    Bits/(Pixel*Frame)          : 0.744
    Stream size                 : 23.0 GiB (91%)
    Title                       : REMUX HD1080p [CinemaniaHDD]
    Writing library             : x264 core 146 r2538 121396c
    Encoding settings           : cabac=1 / ref=4 / deblock=1:-1:-1 / analyse=0x3:0x133 / me=umh / subme=10 / psy=1 / psy_rd=1.00:0.15 / mixed_ref=1 / me_range=24 / chroma_me=1 / trellis=2 / 8x8dct=1 / cqm=0 / deadzone=21,11 / fast_pskip=1 / chroma_qp_offset=-3 / threads=48 / lookahead_threads=4 / sliced_threads=0 / slices=4 / nr=0 / decimate=1 / interlaced=0 / bluray_compat=1 / constrained_intra=0 / bframes=3 / b_pyramid=1 / b_adapt=2 / b_bias=0 / direct=3 / weightb=1 / open_gop=1 / weightp=1 / keyint=24 / keyint_min=1 / scenecut=40 / intra_refresh=0 / rc_lookahead=24 / rc=2pass / mbtree=1 / bitrate=37000 / ratetol=1.0 / qcomp=0.60 / qpmin=0 / qpmax=69 / qpstep=4 / cplxblur=20.0 / qblur=0.5 / vbv_maxrate=39000 / vbv_bufsize=30000 / nal_hrd=vbr / filler=0 / ip_ratio=1.40 / aq=1:1.00
    Default                     : Yes
    Forced                      : Yes
    Color range                 : Limited
    Color primaries             : BT.709
    Transfer characteristics    : BT.709
    Matrix coefficients         : BT.709
    Original source medium      : Blu-ray

    Audio #1
    ID                          : 2
    Format                      : AC-3
    Format/Info                 : Audio Coding 3
    Commercial name             : Dolby Digital
    Codec ID                    : A_AC3
    Duration                    : 1 h 30 min
    Bit rate mode               : Constant
    Bit rate                    : 384 kb/s
    Channel(s)                  : 6 channels
    Channel layout              : L R C LFE Ls Rs
    Sampling rate               : 48.0 kHz
    Frame rate                  : 31.250 FPS (1536 SPF)
    Compression mode            : Lossy
    Stream size                 : 248 MiB (1%)
    Title                       : Español Latino [CinemaniaHDD]
    Language                    : Spanish
    Service kind                : Complete Main
    Default                     : Yes
    Forced                      : Yes

    Audio #2
    ID                          : 3
    ID in the original source m : 4352 (0x1100)
    Format                      : DTS XLL
    Format/Info                 : Digital Theater Systems
    Commercial name             : DTS-HD Master Audio
    Codec ID                    : A_DTS
    Duration                    : 1 h 30 min
    Bit rate mode               : Variable
    Bit rate                    : 3 380 kb/s
    Channel(s)                  : 6 channels
    Channel layout              : C L R Ls Rs LFE
    Sampling rate               : 48.0 kHz
    Frame rate                  : 93.750 FPS (512 SPF)
    Bit depth                   : 24 bits
    Compression mode            : Lossless
    Stream size                 : 2.13 GiB (8%)
    Title                       : Francés [CinemaniaHDD]
    Language                    : French
    Default                     : No
    Forced                      : No
    Original source medium      : Blu-ray

    Text #1
    ID                          : 4
    Format                      : UTF-8
    Codec ID                    : S_TEXT/UTF8
    Codec ID/Info               : UTF-8 Plain Text
    Duration                    : 4 s 805 ms
    Bit rate                    : 34 b/s
    Count of elements           : 1
    Stream size                 : 21.0 Bytes (0%)
    Title                       : Forzados-SRT [CinemaniaHDD]
    Language                    : Spanish
    Default                     : Yes
    Forced                      : Yes

    Text #2
    ID                          : 5
    Format                      : UTF-8
    Codec ID                    : S_TEXT/UTF8
    Codec ID/Info               : UTF-8 Plain Text
    Duration                    : 1 h 24 min
    Bit rate                    : 69 b/s
    Count of elements           : 1339
    Stream size                 : 42.6 KiB (0%)
    Title                       : Español-SRT [CinemaniaHDD]
    Language                    : Spanish
    Default                     : No
    Forced                      : No

    Text #3
    ID                          : 6
    ID in the original source m : 4608 (0x1200)
    Format                      : PGS
    Muxing mode                 : zlib
    Codec ID                    : S_HDMV/PGS
    Codec ID/Info               : Picture based subtitle format used on BDs/HD-DVDs
    Duration                    : 1 h 29 min
    Bit rate                    : 34.8 kb/s
    Count of elements           : 3228
    Stream size                 : 22.4 MiB (0%)
    Title                       : Francés-PGS [CinemaniaHDD]
    Language                    : French
    Default                     : No
    Forced                      : No
    Original source medium      : Blu-ray

    Menu
    00:00:00.000                : Chapter 01
    00:07:07.051                : Chapter 02
    00:13:16.754                : Chapter 03
    00:20:11.919                : Chapter 04
    00:30:44.801                : Chapter 05
    00:38:53.247                : Chapter 06
    00:45:35.941                : Chapter 07
    00:51:48.438                : Chapter 08
    00:58:30.548                : Chapter 09
    01:07:29.795                : Chapter 10
    01:17:00.574                : Chapter 11
    01:26:04.033                : Chapter 12

  • Peso: 25.4 GiB

Sinopsis

Descargar El regreso del héroe (2018) REMUX 1080p Latino. Francia, 1809. El capitán Neuville es un gran seductor. Acaba de pedir la mano de la joven Pauline bajo la desconfiada mirada de la hermana mayor de ésta, Elisabeth. Sin embargo, Neuville es llamado a filas y Pauline deja de recibir noticias suyas. La joven se marchita con cada día que pasa y Elisabeth decide tomar la pluma y empezar una correspondencia con Pauline haciéndose pasar por Neuville, al que convierte en sus relatos en un verdadero héroe de guerra. El capitán acabará reapareciendo, muy a pesar de la joven.

Español Latino AC3 5.1 – Frances DTS-HD 5.1

Ficha técnica

Video trailer de la película

Enlaces de descarga

Rip de Bluray

Descargar El regreso del héroe (2018) REMUX 1080p Latino




Aportes de DPeliculasHDmega la pass es:dpeliculashdmega.org Aportes de CinemaniaHD la pass es:cinemaniahdd.com
Guardado en : Comedia , Historia , Remux

Películas relacionadas

descargar El regreso del héroe (2018) REMUX 1080p Latino Full 1080p 1080p gratis, El regreso del héroe (2018) REMUX 1080p Latino Full 1080p mega 1 link, El regreso del héroe (2018) REMUX 1080p Latino Full 1080p pelicula completa, descargar El regreso del héroe (2018) REMUX 1080p Latino Full 1080p gratis en mega.

El regreso del héroe (2018) REMUX 1080p Latino pelicula full hd, El regreso del héroe (2018) REMUX 1080p Latino mega latino, El regreso del héroe (2018) REMUX 1080p Latino 4k latino, El regreso del héroe (2018) REMUX 1080p Latino pelicula completa, El regreso del héroe (2018) REMUX 1080p Latino descargar gratis, descargar El regreso del héroe (2018) REMUX 1080p Latino pelicula latino, El regreso del héroe (2018) REMUX 1080p Latino 1 link mega, El regreso del héroe (2018) REMUX 1080p Latino 1 link google drive, El regreso del héroe (2018) REMUX 1080p Latino hd 1080p latino.