×

¿Problemas para descargar con Mozilla, EDGE? Deshabilita la opción "Abrir vinculos en una pestaña nueva" tal como lo muestra ésta imagen.

El Regreso de Mary Poppins (2018) Full 1080p Latino

2.332 vistas

Información de El Regreso de Mary Poppins (2018) Full 1080p Latino

el regreso de mary poppins 50359 poster

Datos de la película

  • Calidad: Full 1080p
  • Audio: Español Latino AC3 5.1 BLURAY - Ingles AC3 5.1 BLURAY
  • Subtitulos: Español Latino PGS - Ingles PGS
  • Resolución: 1920x1080p
  • Formato: MKV
  • Codec: H.264
  • Encoder: Chesse92
  • Mediainfo: Clic para Mostrar Datos Ver
  • Mary Poppins Returns (2018) Full HD 1080p Latino(PLACEBO).mkv
    Format                      : Matroska
    Format version              : Version 4
    File size                   : 4.89 GiB
    Duration                    : 2 h 10 min
    Overall bit rate            : 5 370 kb/s
    Movie name                  : CinemaniaHDD.net
    Encoded date                : UTC 2019-03-14 03:46:18
    Writing application         : mkvmerge v30.1.0 ('Forever And More') 64-bit
    Writing library             : libebml v1.3.6 + libmatroska v1.4.9 / Lavf58.20.100

    Video
    ID                          : 1
    Format                      : AVC
    Format/Info                 : Advanced Video Codec
    Format profile              : High@L4.1
    Format settings             : CABAC / 4 Ref Frames
    Format settings, CABAC      : Yes
    Format settings, ReFrames   : 4 frames
    Codec ID                    : V_MPEG4/ISO/AVC
    Duration                    : 2 h 10 min
    Bit rate                    : 4 032 kb/s
    Width                       : 1 920 pixels
    Height                      : 1 080 pixels
    Display aspect ratio        : 16:9
    Frame rate mode             : Constant
    Frame rate                  : 23.976 (24000/1001) FPS
    Color space                 : YUV
    Chroma subsampling          : 4:2:0
    Bit depth                   : 8 bits
    Scan type                   : Progressive
    Bits/(Pixel*Frame)          : 0.081
    Stream size                 : 3.67 GiB (75%)
    Writing library             : x264 core 157 r2935 545de2f
    Encoding settings           : cabac=1 / ref=4 / deblock=1:0:0 / analyse=0x3:0x133 / me=tesa / subme=11 / psy=1 / psy_rd=1.00:0.00 / mixed_ref=1 / me_range=24 / chroma_me=1 / trellis=2 / 8x8dct=1 / cqm=0 / deadzone=21,11 / fast_pskip=0 / chroma_qp_offset=-2 / threads=34 / lookahead_threads=8 / sliced_threads=0 / nr=0 / decimate=1 / interlaced=0 / bluray_compat=0 / constrained_intra=0 / bframes=16 / b_pyramid=2 / b_adapt=2 / b_bias=0 / direct=3 / weightb=1 / open_gop=0 / weightp=2 / keyint=240 / keyint_min=24 / scenecut=40 / intra_refresh=0 / rc_lookahead=60 / rc=crf / mbtree=1 / crf=20.0 / qcomp=0.60 / qpmin=0 / qpmax=69 / qpstep=4 / vbv_maxrate=62500 / vbv_bufsize=78125 / crf_max=0.0 / nal_hrd=none / filler=0 / ip_ratio=1.40 / aq=1:1.00
    Default                     : Yes
    Forced                      : No
    Color range                 : Limited
    Color primaries             : BT.709
    Transfer characteristics    : BT.709
    Matrix coefficients         : BT.709

    Audio #1
    ID                          : 2
    Format                      : AC-3
    Format/Info                 : Audio Coding 3
    Commercial name             : Dolby Digital
    Codec ID                    : A_AC3
    Duration                    : 2 h 10 min
    Bit rate mode               : Constant
    Bit rate                    : 640 kb/s
    Channel(s)                  : 6 channels
    Channel layout              : L R C LFE Ls Rs
    Sampling rate               : 48.0 kHz
    Frame rate                  : 31.250 FPS (1536 SPF)
    Bit depth                   : 16 bits
    Compression mode            : Lossy
    Stream size                 : 597 MiB (12%)
    Language                    : Spanish
    Service kind                : Complete Main
    Default                     : Yes
    Forced                      : No

    Audio #2
    ID                          : 3
    Format                      : AC-3
    Format/Info                 : Audio Coding 3
    Commercial name             : Dolby Digital
    Codec ID                    : A_AC3
    Duration                    : 2 h 10 min
    Bit rate mode               : Constant
    Bit rate                    : 640 kb/s
    Channel(s)                  : 6 channels
    Channel layout              : L R C LFE Ls Rs
    Sampling rate               : 48.0 kHz
    Frame rate                  : 31.250 FPS (1536 SPF)
    Bit depth                   : 16 bits
    Compression mode            : Lossy
    Stream size                 : 597 MiB (12%)
    Title                       : Surround
    Language                    : English
    Service kind                : Complete Main
    Default                     : No
    Forced                      : No

    Text #1
    ID                          : 4
    Format                      : PGS
    Muxing mode                 : zlib
    Codec ID                    : S_HDMV/PGS
    Codec ID/Info               : Picture based subtitle format used on BDs/HD-DVDs
    Duration                    : 2 h 2 min
    Bit rate                    : 44.6 kb/s
    Count of elements           : 3938
    Stream size                 : 39.0 MiB (1%)
    Language                    : Spanish
    Default                     : No
    Forced                      : No

    Text #2
    ID                          : 5
    Format                      : PGS
    Muxing mode                 : zlib
    Codec ID                    : S_HDMV/PGS
    Codec ID/Info               : Picture based subtitle format used on BDs/HD-DVDs
    Duration                    : 1 h 50 min
    Bit rate                    : 143 b/s
    Count of elements           : 12
    Stream size                 : 116 KiB (0%)
    Language                    : Spanish
    Default                     : No
    Forced                      : No

    Text #3
    ID                          : 6
    Format                      : PGS
    Muxing mode                 : zlib
    Codec ID                    : S_HDMV/PGS
    Codec ID/Info               : Picture based subtitle format used on BDs/HD-DVDs
    Duration                    : 2 h 2 min
    Bit rate                    : 70.6 kb/s
    Count of elements           : 3283
    Stream size                 : 61.8 MiB (1%)
    Language                    : Spanish
    Default                     : No
    Forced                      : No

    Text #4
    ID                          : 7
    Format                      : PGS
    Muxing mode                 : zlib
    Codec ID                    : S_HDMV/PGS
    Codec ID/Info               : Picture based subtitle format used on BDs/HD-DVDs
    Duration                    : 2 h 5 min
    Bit rate                    : 53.6 kb/s
    Count of elements           : 4918
    Stream size                 : 48.1 MiB (1%)
    Language                    : English
    Default                     : No
    Forced                      : No

    Text #5
    ID                          : 8
    Format                      : UTF-8
    Codec ID                    : S_TEXT/UTF8
    Codec ID/Info               : UTF-8 Plain Text
    Duration                    : 1 h 51 min
    Bit rate                    : 0 b/s
    Count of elements           : 11
    Stream size                 : 269 Bytes (0%)
    Language                    : Spanish
    Default                     : Yes
    Forced                      : No

    Text #6
    ID                          : 9
    Format                      : UTF-8
    Codec ID                    : S_TEXT/UTF8
    Codec ID/Info               : UTF-8 Plain Text
    Duration                    : 2 h 2 min
    Bit rate                    : 74 b/s
    Count of elements           : 1991
    Stream size                 : 66.4 KiB (0%)
    Language                    : Spanish
    Default                     : No
    Forced                      : No

    Menu
    00:00:00.000                : :Capítulo 01
    00:06:38.064                : :Capítulo 02
    00:15:22.046                : :Capítulo 03
    00:19:18.032                : :Capítulo 04
    00:26:01.894                : :Capítulo 05
    00:33:10.405                : :Capítulo 06
    00:39:05.426                : :Capítulo 07
    00:46:11.352                : :Capítulo 08
    00:57:34.034                : :Capítulo 09
    01:06:14.387                : :Capítulo 10
    01:15:55.801                : :Capítulo 11
    01:21:51.365                : :Capítulo 12
    01:32:18.199                : :Capítulo 13
    01:36:29.826                : :Capítulo 14
    01:53:58.332                : :Capítulo 15
    02:03:47.962                : :Capítulo 16
     

  • Peso: 4.89 GiB

Sinopsis

Descargar El Regreso de Mary Poppins (2018) Full 1080p Latino, Mega, Google Drive, Torrent. En la era de la Depresión de Londres, un ahora crecidos Jane y Michael Banks, junto con los tres hijos de Michael, son visitados por la enigmática Mary Poppins después de la pérdida de un pariente. A través de sus habilidades mágicas únicas, y con la ayuda de su amigo Jack, ella ayuda a la familia a redescubrir la alegría y la maravilla que falta en sus vidas.

Ficha técnica

Video trailer de la película

Enlaces de descarga

Rip de Bluray

Descargar El Regreso de Mary Poppins (2018) Full 1080p Latino




Aportes de DPeliculasHDmega la pass es:dpeliculashdmega.org Aportes de CinemaniaHD la pass es:cinemaniahdd.com

Películas relacionadas

descargar El Regreso de Mary Poppins (2018) Full 1080p Latino Full 1080p 1080p gratis, El Regreso de Mary Poppins (2018) Full 1080p Latino Full 1080p mega 1 link, El Regreso de Mary Poppins (2018) Full 1080p Latino Full 1080p pelicula completa, descargar El Regreso de Mary Poppins (2018) Full 1080p Latino Full 1080p gratis en mega.

El Regreso de Mary Poppins (2018) Full 1080p Latino pelicula full hd, El Regreso de Mary Poppins (2018) Full 1080p Latino mega latino, El Regreso de Mary Poppins (2018) Full 1080p Latino 4k latino, El Regreso de Mary Poppins (2018) Full 1080p Latino pelicula completa, El Regreso de Mary Poppins (2018) Full 1080p Latino descargar gratis, descargar El Regreso de Mary Poppins (2018) Full 1080p Latino pelicula latino, El Regreso de Mary Poppins (2018) Full 1080p Latino 1 link mega, El Regreso de Mary Poppins (2018) Full 1080p Latino 1 link google drive, El Regreso de Mary Poppins (2018) Full 1080p Latino hd 1080p latino.
Comentarios 0