×

¿Problemas para descargar con Mozilla, EDGE? Deshabilita la opción "Abrir vinculos en una pestaña nueva" tal como lo muestra ésta imagen.

El regreso de Mary Poppins (2018) REMUX 1080p Latino

694 vistas

Información de El regreso de Mary Poppins (2018) REMUX 1080p Latino

4JXp9oL6wpaEligQhUOapKLmZHi

Datos de la película

  • Calidad: Full 1080p
  • Audio: Español Latino AC3 5.1 BLURAY - DTS-HD Master 7.1 BLURAY
  • Subtitulos: Español Latino SRT- FORZADOS SRT
  • Resolución: 1920x1080p
  • Formato: MKV
  • Codec: H.264
  • Encoder: Dracarys
  • Mediainfo: Clic para Mostrar Datos Ver
  • Format                      : Matroska
    Format version              : Version 4
    File size                   : 29.3 GiB
    Duration                    : 2 h 10 min
    Overall bit rate mode       : Variable
    Overall bit rate            : 32.1 Mb/s
    Movie name                  : CinemaniaHDD.net
    Encoded date                : UTC 2019-04-02 22:13:50
    Writing application         : mkvmerge v30.1.0 ('Forever And More') 64-bit
    Writing library             : libebml v1.3.6 + libmatroska v1.4.9

    Video
    ID                          : 1
    Format                      : AVC
    Format/Info                 : Advanced Video Codec
    Format profile              : High@L4.1
    Format settings             : CABAC / 4 Ref Frames
    Format settings, CABAC      : Yes
    Format settings, ReFrames   : 4 frames
    Codec ID                    : V_MPEG4/ISO/AVC
    Duration                    : 2 h 10 min
    Bit rate mode               : Variable
    Bit rate                    : 27.1 Mb/s
    Maximum bit rate            : 34.0 Mb/s
    Width                       : 1 920 pixels
    Height                      : 1 080 pixels
    Display aspect ratio        : 16:9
    Frame rate mode             : Constant
    Frame rate                  : 23.976 (24000/1001) FPS
    Color space                 : YUV
    Chroma subsampling          : 4:2:0
    Bit depth                   : 8 bits
    Scan type                   : Progressive
    Bits/(Pixel*Frame)          : 0.545
    Stream size                 : 24.7 GiB (84%)
    Language                    : English
    Default                     : No
    Forced                      : No

    Audio #1
    ID                          : 2
    Format                      : DTS XLL
    Format/Info                 : Digital Theater Systems
    Commercial name             : DTS-HD Master Audio
    Codec ID                    : A_DTS
    Duration                    : 2 h 10 min
    Bit rate mode               : Variable
    Bit rate                    : 4 351 kb/s
    Channel(s)                  : 8 channels
    Channel layout              : C L R LFE Lb Rb Lss Rss
    Sampling rate               : 48.0 kHz
    Frame rate                  : 93.750 FPS (512 SPF)
    Bit depth                   : 24 bits
    Compression mode            : Lossless
    Stream size                 : 3.97 GiB (14%)
    Language                    : English
    Default                     : No
    Forced                      : No

    Audio #2
    ID                          : 3
    Format                      : AC-3
    Format/Info                 : Audio Coding 3
    Commercial name             : Dolby Digital
    Codec ID                    : A_AC3
    Duration                    : 2 h 10 min
    Bit rate mode               : Constant
    Bit rate                    : 640 kb/s
    Channel(s)                  : 6 channels
    Channel layout              : L R C LFE Ls Rs
    Sampling rate               : 48.0 kHz
    Frame rate                  : 31.250 FPS (1536 SPF)
    Bit depth                   : 16 bits
    Compression mode            : Lossy
    Stream size                 : 597 MiB (2%)
    Language                    : Spanish
    Service kind                : Complete Main
    Default                     : Yes
    Forced                      : Yes

    Text #1
    ID                          : 4
    Format                      : PGS
    Muxing mode                 : zlib
    Codec ID                    : S_HDMV/PGS
    Codec ID/Info               : Picture based subtitle format used on BDs/HD-DVDs
    Duration                    : 2 h 2 min
    Bit rate                    : 44.6 kb/s
    Count of elements           : 3938
    Stream size                 : 39.0 MiB (0%)
    Title                       : Spanish-PGS
    Language                    : Spanish
    Default                     : No
    Forced                      : No

    Text #2
    ID                          : 5
    Format                      : PGS
    Muxing mode                 : zlib
    Codec ID                    : S_HDMV/PGS
    Codec ID/Info               : Picture based subtitle format used on BDs/HD-DVDs
    Duration                    : 1 h 50 min
    Bit rate                    : 143 b/s
    Count of elements           : 12
    Stream size                 : 116 KiB (0%)
    Title                       : English-FORCED-PGS
    Language                    : Spanish
    Default                     : No
    Forced                      : No

    Text #3
    ID                          : 6
    Format                      : PGS
    Muxing mode                 : zlib
    Codec ID                    : S_HDMV/PGS
    Codec ID/Info               : Picture based subtitle format used on BDs/HD-DVDs
    Duration                    : 2 h 2 min
    Bit rate                    : 70.6 kb/s
    Count of elements           : 3283
    Stream size                 : 61.8 MiB (0%)
    Title                       : Spanish-Karaoke
    Language                    : Spanish
    Default                     : No
    Forced                      : No

    Text #4
    ID                          : 7
    Format                      : UTF-8
    Codec ID                    : S_TEXT/UTF8
    Codec ID/Info               : UTF-8 Plain Text
    Duration                    : 2 h 2 min
    Bit rate                    : 69 b/s
    Count of elements           : 1969
    Stream size                 : 62.7 KiB (0%)
    Title                       : Completos-SRT
    Language                    : Spanish
    Default                     : No
    Forced                      : No

    Text #5
    ID                          : 8
    Format                      : UTF-8
    Codec ID                    : S_TEXT/UTF8
    Codec ID/Info               : UTF-8 Plain Text
    Duration                    : 1 h 50 min
    Bit rate                    : 0 b/s
    Count of elements           : 6
    Stream size                 : 167 Bytes (0%)
    Title                       : Forzados-SRT
    Language                    : Spanish
    Default                     : Yes
    Forced                      : Yes

    Text #6
    ID                          : 9
    Format                      : UTF-8
    Codec ID                    : S_TEXT/UTF8
    Codec ID/Info               : UTF-8 Plain Text
    Duration                    : 2 h 2 min
    Bit rate                    : 111 b/s
    Count of elements           : 2840
    Stream size                 : 100 KiB (0%)
    Title                       : Karaoke-SRT
    Language                    : Spanish
    Default                     : No
    Forced                      : No

    Menu
    00:00:00.000                : en:Chapter 01
    00:06:38.064                : en:Chapter 02
    00:15:22.046                : en:Chapter 03
    00:19:18.031                : en:Chapter 04
    00:26:01.893                : en:Chapter 05
    00:33:10.405                : en:Chapter 06
    00:39:05.426                : en:Chapter 07
    00:46:11.351                : en:Chapter 08
    00:57:34.033                : en:Chapter 09
    01:06:14.387                : en:Chapter 10
    01:15:55.801                : en:Chapter 11
    01:21:51.364                : en:Chapter 12
    01:32:18.199                : en:Chapter 13
    01:36:29.825                : en:Chapter 14
    01:53:58.331                : en:Chapter 15
    02:03:47.962                : en:Chapter 16

  • Peso: 29.3 GiB

Sinopsis

En la era de la Depresión de Londres, un ahora crecidos Jane y Michael Banks, junto con los tres hijos de Michael, son visitados por la enigmática Mary Poppins después de la pérdida de un pariente. A través de sus habilidades mágicas únicas, y con la ayuda de su amigo Jack, ella ayuda a la familia a redescubrir la alegría y la maravilla que falta en sus vidas.

Ficha técnica

Video trailer de la película

Enlaces de descarga

Rip de Bluray

Descargar El regreso de Mary Poppins (2018) REMUX 1080p Latino




Aportes de DPeliculasHDmega la pass es:dpeliculashdmega.org Aportes de CinemaniaHD la pass es:cinemaniahdd.com
Guardado en : Comedia , Familia , Fantasía , Remux

Películas relacionadas

descargar El regreso de Mary Poppins (2018) REMUX 1080p Latino Full 1080p 1080p gratis, El regreso de Mary Poppins (2018) REMUX 1080p Latino Full 1080p mega 1 link, El regreso de Mary Poppins (2018) REMUX 1080p Latino Full 1080p pelicula completa, descargar El regreso de Mary Poppins (2018) REMUX 1080p Latino Full 1080p gratis en mega.

El regreso de Mary Poppins (2018) REMUX 1080p Latino pelicula full hd, El regreso de Mary Poppins (2018) REMUX 1080p Latino mega latino, El regreso de Mary Poppins (2018) REMUX 1080p Latino 4k latino, El regreso de Mary Poppins (2018) REMUX 1080p Latino pelicula completa, El regreso de Mary Poppins (2018) REMUX 1080p Latino descargar gratis, descargar El regreso de Mary Poppins (2018) REMUX 1080p Latino pelicula latino, El regreso de Mary Poppins (2018) REMUX 1080p Latino 1 link mega, El regreso de Mary Poppins (2018) REMUX 1080p Latino 1 link google drive, El regreso de Mary Poppins (2018) REMUX 1080p Latino hd 1080p latino.
Comentarios 0