×

¿Problemas para descargar con Mozilla, EDGE? Deshabilita la opción "Abrir vinculos en una pestaña nueva" tal como lo muestra ésta imagen.

Una Noche En El Museo: El Regreso De Kahmunrah (2022) WEB-DL 4K UHD HDR/DV Latino

74 vistas

Información de Una Noche En El Museo: El Regreso De Kahmunrah (2022) WEB-DL 4K UHD HDR/DV Latino

Datos de la película

  • Calidad: WEBDL
  • Audio: Español Latino AC3 5.1 WEB-DL - Ingles AC3 5.1 WEB-DL
  • Subtitulos: Español Latino SRT- FORZADOS SRT
  • Resolución: 3840x2160p
  • Formato: MKV
  • Codec: HEVC
  • Encoder: Melkor
  • Mediainfo: Clic para Mostrar Datos Ver
  • Una Noche En El Museo. El Regreso De Kahmunrah (2022) WEB UHD HDR-DV Latino.mkv
    Format                      : Matroska
    Format version              : Version 4
    File size                   : 7.87 GiB
    Duration                    : 1 h 17 min
    Overall bit rate            : 14.5 Mb/s
    Movie name                  : Night at the Museum. Kahmunrah Rises Again (2022) CinemaniaHDD.Net
    Encoded date                : UTC 2022-12-09 19:36:52
    Writing application         : mkvmerge v56.1.0 ('My Friend') 64-bit
    Writing library             : libebml v1.4.2 + libmatroska v1.6.4
    Attachments                 : CINEMANIAHD.png

    Video
    ID                          : 1
    Format                      : HEVC
    Format/Info                 : High Efficiency Video Coding
    Format profile              : Main 10@L5@High
    HDR format                  : Dolby Vision, Version 1.0, dvhe.08.06, BL+RPU, HDR10 compatible / SMPTE ST 2086, HDR10 compatible
    Codec ID                    : V_MPEGH/ISO/HEVC
    Duration                    : 1 h 17 min
    Bit rate                    : 13.0 Mb/s
    Width                       : 3 840 pixels
    Height                      : 2 160 pixels
    Display aspect ratio        : 16:9
    Frame rate mode             : Constant
    Frame rate                  : 24.000 FPS
    Color space                 : YUV
    Chroma subsampling          : 4:2:0
    Bit depth                   : 10 bits
    Bits/(Pixel*Frame)          : 0.065
    Stream size                 : 7.07 GiB (90%)
    Title                       : Web 2160p HDR [CinemaniaHDD]
    Default                     : Yes
    Forced                      : No
    Color range                 : Limited
    Color primaries             : BT.2020
    Transfer characteristics    : PQ
    Matrix coefficients         : BT.2020 non-constant
    Mastering display color pri : Display P3
    Mastering display luminance : min: 0.0001 cd/m2, max: 1000 cd/m2

    Audio #1
    ID                          : 2
    Format                      : AC-3
    Format/Info                 : Audio Coding 3
    Commercial name             : Dolby Digital
    Codec ID                    : A_AC3
    Duration                    : 1 h 17 min
    Bit rate mode               : Constant
    Bit rate                    : 448 kb/s
    Channel(s)                  : 6 channels
    Channel layout              : L R C LFE Ls Rs
    Sampling rate               : 48.0 kHz
    Frame rate                  : 31.250 FPS (1536 SPF)
    Compression mode            : Lossy
    Stream size                 : 249 MiB (3%)
    Title                       : Español Latino AC3 [CinemaniaHDD]
    Language                    : Spanish
    Service kind                : Complete Main
    Default                     : Yes
    Forced                      : Yes

    Audio #2
    ID                          : 3
    Format                      : E-AC-3
    Format/Info                 : Enhanced AC-3
    Commercial name             : Dolby Digital Plus
    Codec ID                    : A_EAC3
    Duration                    : 1 h 17 min
    Bit rate mode               : Constant
    Bit rate                    : 256 kb/s
    Channel(s)                  : 6 channels
    Channel layout              : L R C LFE Ls Rs
    Sampling rate               : 48.0 kHz
    Frame rate                  : 31.250 FPS (1536 SPF)
    Compression mode            : Lossy
    Stream size                 : 142 MiB (2%)
    Title                       : Español Latino EAC3 [CinemaniaHDD]
    Language                    : Spanish
    Service kind                : Complete Main
    Default                     : No
    Forced                      : No

    Audio #3
    ID                          : 4
    Format                      : E-AC-3 JOC
    Format/Info                 : Enhanced AC-3 with Joint Object Coding
    Commercial name             : Dolby Digital Plus with Dolby Atmos
    Codec ID                    : A_EAC3
    Duration                    : 1 h 17 min
    Bit rate mode               : Constant
    Bit rate                    : 768 kb/s
    Channel(s)                  : 6 channels
    Channel layout              : L R C LFE Ls Rs
    Sampling rate               : 48.0 kHz
    Frame rate                  : 31.250 FPS (1536 SPF)
    Compression mode            : Lossy
    Stream size                 : 427 MiB (5%)
    Title                       : Ingles [CinemaniaHDD]
    Language                    : English
    Service kind                : Complete Main
    Default                     : No
    Forced                      : No
    Complexity index            : 16
    Number of dynamic objects   : 15
    Bed channel count           : 1 channel
    Bed channel configuration   : LFE

    Text #1
    ID                          : 5
    Format                      : UTF-8
    Codec ID                    : S_TEXT/UTF8
    Codec ID/Info               : UTF-8 Plain Text
    Duration                    : 22 s 542 ms
    Bit rate                    : 166 b/s
    Count of elements           : 3
    Stream size                 : 469 Bytes (0%)
    Title                       : Forzados-SRT [CinemaniaHDD]
    Language                    : Spanish
    Default                     : Yes
    Forced                      : Yes

    Text #2
    ID                          : 6
    Format                      : UTF-8
    Codec ID                    : S_TEXT/UTF8
    Codec ID/Info               : UTF-8 Plain Text
    Duration                    : 1 h 12 min
    Bit rate                    : 62 b/s
    Count of elements           : 1136
    Stream size                 : 33.2 KiB (0%)
    Title                       : Español-SRT [CinemaniaHDD]
    Language                    : Spanish
    Default                     : No
    Forced                      : No

    Text #3
    ID                          : 7
    Format                      : UTF-8
    Codec ID                    : S_TEXT/UTF8
    Codec ID/Info               : UTF-8 Plain Text
    Duration                    : 1 h 12 min
    Bit rate                    : 77 b/s
    Count of elements           : 1239
    Stream size                 : 41.4 KiB (0%)
    Title                       : Ingles-SRT [CinemaniaHDD]
    Language                    : English
    Default                     : No
    Forced                      : No

    Menu
    00:08:24.292                : Scene 1
    00:18:03.000                : Scene 2
    00:34:05.875                : Scene 3
    00:42:02.417                : Scene 4
    00:50:12.917                : Scene 5
    00:57:41.083                : Scene 6
    01:08:58.625                : Scene 7
    01:13:44.083                : Credits

  • Peso: 7.87 GiB

Sinopsis

Descargar Una Noche En El Museo: El Regreso De Kahmunrah (2022) WEB-DL 4K UHD HDR/DV Latino. El trabajo de verano de Nick Daley como vigilante nocturno del Museo de Historia Natural supone todo un reto para un estudiante de instituto. Afortunadamente, está siguiendo los pasos de su padre y está familiarizado con la antigua tabla que lo dota todo de vida cuando se pone el sol. Nick se alegra de ver a sus viejos amigos, entre los que se incluyen Teddy, Sacagawea y Rex. Pero cuando el malvado Kahmunrah escapa con un plan para abrir el inframundo egipcio y liberar a su Ejército de los Muertos, será Nick el que tenga que detener al demente gobernador y salvar el museo de una vez por todas.

Ficha técnica

Video trailer de la película

Enlaces de descarga

Rip de Bluray

Descargar Una Noche En El Museo: El Regreso De Kahmunrah (2022) WEB-DL 4K UHD HDR/DV Latino




Aportes de DPeliculasHDmega la pass es:dpeliculashdmega.org Aportes de CinemaniaHD la pass es:cinemaniahdd.com
Guardado en : 4K HDR , 4K UHD , Animación , Comedia , Familia , Fantasía

Películas relacionadas

  • Corazón de tinta (2008) Full HD 1080p Latino

    Corazón de tinta (2008) Full HD 1080p Latino

    2008
    Corazón de tinta (2008) Full HD 1080p Latino

    1h 46m 2008

    Descargar Corazón de tinta (2008) Full HD 1080p Latino. Mortimer “Mo” Folchart y su hija de 12 años,...

    Director: Sharon Mansfield

    Género: Aventura

    Actores: Terry Cavanagh

  • Corazón de tinta (2008) REMUX 1080p Latino

    Corazón de tinta (2008) REMUX 1080p Latino

    2008
    Corazón de tinta (2008) REMUX 1080p Latino

    1h 46m 2008

    Descargar Corazón de tinta (2008) REMUX 1080p Latino. Mortimer “Mo” Folchart y su hija de 12 años,...

    Director: Sharon Mansfield

    Género: Aventura

    Actores: Tereza Srbová

  • Hombre de familia (2000) REMUX 1080p Latino

    Hombre de familia (2000) REMUX 1080p Latino

    2000
    Hombre de familia (2000) REMUX 1080p Latino

    2h 1m 2000

    Descargar Hombre de familia (2000) REMUX 1080p Latino. Jack Campbell es un egocéntrico broker de Wall...

    Director: Robert Schroer

    Género: Comedia

    Actores: Wass Stevens

  • Te Amo Brother (2009) REMUX 1080p Latino

    Te Amo Brother (2009) REMUX 1080p Latino

    2009
    Te Amo Brother (2009) REMUX 1080p Latino

    1h 45m 2009

    Descargar Te Amo Brother (2009) REMUX 1080p Latino. Peter Klaven (Paul Rudd) es un joven que vive muy...

    Director: Scott Robertson

    Género: Comedia

    Actores: Vicki Davis

descargar Una Noche En El Museo: El Regreso De Kahmunrah (2022) WEB-DL 4K UHD HDR/DV Latino WEBDL 1080p gratis, Una Noche En El Museo: El Regreso De Kahmunrah (2022) WEB-DL 4K UHD HDR/DV Latino WEBDL mega 1 link, Una Noche En El Museo: El Regreso De Kahmunrah (2022) WEB-DL 4K UHD HDR/DV Latino WEBDL pelicula completa, descargar Una Noche En El Museo: El Regreso De Kahmunrah (2022) WEB-DL 4K UHD HDR/DV Latino WEBDL gratis en mega.

Una Noche En El Museo: El Regreso De Kahmunrah (2022) WEB-DL 4K UHD HDR/DV Latino pelicula full hd, Una Noche En El Museo: El Regreso De Kahmunrah (2022) WEB-DL 4K UHD HDR/DV Latino mega latino, Una Noche En El Museo: El Regreso De Kahmunrah (2022) WEB-DL 4K UHD HDR/DV Latino 4k latino, Una Noche En El Museo: El Regreso De Kahmunrah (2022) WEB-DL 4K UHD HDR/DV Latino pelicula completa, Una Noche En El Museo: El Regreso De Kahmunrah (2022) WEB-DL 4K UHD HDR/DV Latino descargar gratis, descargar Una Noche En El Museo: El Regreso De Kahmunrah (2022) WEB-DL 4K UHD HDR/DV Latino pelicula latino, Una Noche En El Museo: El Regreso De Kahmunrah (2022) WEB-DL 4K UHD HDR/DV Latino 1 link mega, Una Noche En El Museo: El Regreso De Kahmunrah (2022) WEB-DL 4K UHD HDR/DV Latino 1 link google drive, Una Noche En El Museo: El Regreso De Kahmunrah (2022) WEB-DL 4K UHD HDR/DV Latino hd 1080p latino.
Comentarios 0